Человек Мира с Андреем Понкратовым. Таджикистан. Чудеса природы и кулинарии [2012, Документальный, DVB]

Познавательные материалы о странах мира
Торрент Сидеров Личеров Размер
torrent_4176188.torrent
0 0 591.19 МБ
Аватара пользователя
Солнышко
Сообщения: 22944
Зарегистрирован: 13 янв 2016, 22:10

Человек Мира с Андреем Понкратовым. Таджикистан. Чудеса природы и кулинарии [2012, Документальный, DVB]

Сообщение Солнышко » 26 мар 2018, 14:26

Человек Мира с Андреем Понкратовым. Таджикистан. Чудеса природы и кулинарии
Год выпуска: 2012
Страна: Россия
Жанр: Документальный
Продолжительность: 00:26:10
Перевод: Не требуется
Описание: Таджикистан - самое маленькое из государств Центральной Азии, единственное в бывшем Союзе, где говорят на языке, родственном персидскому - фарси. Это страна гор - они занимают 93% территории. В Таджикистане более 150 уникальных природных явлений, либо не имеющих мировых аналогов, либо редко встречающихся. Одно из них - родоновые источники. А еще в Таджикистане вас никогда не оставят голодным!
Качество: DVB
Формат: MPEG
Видео кодек: MPEG2
Аудио кодек: MPEG1 Layer 2
Видео: MPEG2 Video 720x576 (4:3) 25.00fps ~2 903 Kbps
Аудио: MPEG Audio 48000Hz 2 channels 192 Кбит/сек
F:\03__Моя планета\222__МПЕГ\Человек Мира с Андреем Понкратовым. Таджикистан. Чудеса природы и кулинарии_DVB by kuzmichm2196 .mpg
General
Complete name : F:\03__Моя планета\222__МПЕГ\Человек Мира с Андреем Понкратовым. Таджикистан. Чудеса природы и кулинарии_DVB by kuzmichm2196 .mpg
Format : MPEG-PS
File size : 591 MiB
Duration : 26mn 10s
Overall bit rate mode : Variable
Overall bit rate : 3 158 Kbps
Writing library : (c) 1998-2008 Womble Multimedia, Inc. / MPEG Video Wizard (08/2008) / Aug 25 2008
Video #224
ID : 224 (0xE0)
Format : MPEG Video
Format version : Version 2
Format profile : Main@Main
Format settings, BVOP : Yes
Format settings, Matrix : Custom
Format settings, GOP : M=2, N=30
Duration : 26mn 10s
Bit rate mode : Variable
Bit rate : 2 903 Kbps
Maximum bit rate : 15.0 Mbps
Width : 720 pixels
Height : 576 pixels
Display aspect ratio : 4:3
Frame rate : 25.000 fps
Standard : PAL
Color space : YUV
Chroma subsampling : 4:2:0
Bit depth : 8 bits
Scan type : Interlaced
Scan order : Top Field First
Compression mode : Lossy
Bits/(Pixel*Frame) : 0.280
Stream size : 543 MiB (92%)
Writing library : (c) 1998-2008 Womble Multimedia, Inc. / MPEG Video Wizard (08/2008) / Aug 25 2008
Audio #192
ID : 192 (0xC0)
Format : MPEG Audio
Format version : Version 1
Format profile : Layer 2
Duration : 26mn 10s
Bit rate mode : Constant
Bit rate : 192 Kbps
Channel(s) : 2 channels
Sampling rate : 48.0 KHz
Compression mode : Lossy
Delay relative to video : -40ms
Stream size : 35.9 MiB (6%)
У вас нет необходимых прав для просмотра вложений в этом сообщении.