Круиз по Карелии. Валаам / A Karelian cruise. Valaam [2012, Документальный, DVB]

Познавательные материалы о странах мира
Торрент Сидеров Личеров Размер
torrent_4163494.torrent
0 0 717.23 МБ
Аватара пользователя
Солнышко
Сообщения: 22944
Зарегистрирован: 13 янв 2016, 22:10

Круиз по Карелии. Валаам / A Karelian cruise. Valaam [2012, Документальный, DVB]

Сообщение Солнышко » 26 мар 2018, 14:26

Круиз по Карелии. Валаам / A Karelian cruise. Valaam
Год выпуска: 2012
Страна: Россия
Жанр: Документальный
Продолжительность: 00:22:43
Перевод: Не требуется
Описание: Команда RTG TV во главе с ведущим и режиссером Юрием Песьяковым отправляется в пятидневное путешествие по Карелии. Программа начинается в Санкт-Петербурге, где с Речного вокзала отходит теплоход «Святая Русь». Само название теплохода определяет основную тему круиза: зрителям предстоит побывать на острове Валаам в Ладожском озере, где более десяти веков стоит Валаамский мужской монастырь Русской Православной Церкви. Зрители узнают, кем и когда был основан Валаамский монастырь, побывают в скитах Валаамского архипелага. Скит - это монастырь в миниатюре только с более строгими правилами, более строгим уставом. Всего на архипелаге 11 скитов. Далее к Свято-Троицкому мужскому монастырю, который был основан преподобным Александром Свирским. По реке Свирь теплоход везет пассажиров к знаменитому Онежскому озеру, где на острове Кижи стоит удивительный музей деревянного зодчества - старинные русские церкви, построенные без единого гвоздя.
Программа продолжится в столице республики Карелия городе Петрозаводске, откуда теплоход «Святая Русь» отправляется обратно. Но и на обратном пути туристов ждут приключения - в деревне Верхние Мандроги расположен особый туристический центр, где организаторы предлагают уникальную развлекательную программу.
Качество: DVB
Формат: MPEG
Видео кодек: MPEG2
Аудио кодек: MPEG1 Layer 2
Видео: MPEG2 Video 720x576 (4:3) 25.00fps ~4 132 Kbps
Аудио: MPEG Audio 48000Hz 2 channels 192 Кбит/сек
F:\01__RTG_TV\02_МПЕГ\Круиз по Карелии. Валаам_DVB by kuzmichm2196 .mpg
General
Complete name : F:\01__RTG_TV\02_МПЕГ\Круиз по Карелии. Валаам_DVB by kuzmichm2196 .mpg
Format : MPEG-PS
File size : 717 MiB
Duration : 22mn 43s
Overall bit rate mode : Variable
Overall bit rate : 4 412 Kbps
Writing library : (c) 1998-2008 Womble Multimedia, Inc. / MPEG Video Wizard (08/2008) / Aug 25 2008
Video #224
ID : 224 (0xE0)
Format : MPEG Video
Format version : Version 2
Format profile : Main@Main
Format settings, BVOP : Yes
Format settings, Matrix : Custom
Format settings, GOP : M=2, N=24
Duration : 22mn 43s
Bit rate mode : Variable
Bit rate : 4 132 Kbps
Maximum bit rate : 15.0 Mbps
Width : 720 pixels
Height : 576 pixels
Display aspect ratio : 4:3
Frame rate : 25.000 fps
Standard : PAL
Color space : YUV
Chroma subsampling : 4:2:0
Bit depth : 8 bits
Scan type : Interlaced
Scan order : Top Field First
Compression mode : Lossy
Bits/(Pixel*Frame) : 0.399
Stream size : 672 MiB (94%)
Writing library : (c) 1998-2008 Womble Multimedia, Inc. / MPEG Video Wizard (08/2008) / Aug 25 2008
Audio #192
ID : 192 (0xC0)
Format : MPEG Audio
Format version : Version 1
Format profile : Layer 2
Duration : 22mn 43s
Bit rate mode : Constant
Bit rate : 192 Kbps
Channel(s) : 2 channels
Sampling rate : 48.0 KHz
Compression mode : Lossy
Delay relative to video : -40ms
Stream size : 31.2 MiB (4%)
У вас нет необходимых прав для просмотра вложений в этом сообщении.