Наследие человечества. Выпуск 35. Троя, Кусейр-Амра, Алеппо (Романовский / Kristian Romanovski) [2011, Документальный, DVDRip]

Познавательные материалы о странах мира
Торрент Сидеров Личеров Размер
torrent_4583936.torrent
0 0 779.52 МБ
Аватара пользователя
Солнышко
Сообщения: 22944
Зарегистрирован: 13 янв 2016, 22:10

Наследие человечества. Выпуск 35. Троя, Кусейр-Амра, Алеппо (Романовский / Kristian Romanovski) [2011, Документальный, DVDRip]

Сообщение Солнышко » 26 мар 2018, 14:26

Наследие человечества. Выпуск 35
Турция - Троя, Иордания - Кусейр-Амра, Сирия - Алеппо
Год выпуска: 2011
Страна: Германия, Россия
Жанр: Документальный
Продолжительность: 00:43:06
Перевод: Профессиональный (одноголосый)
Русские субтитры: нет
Режиссёр: Кристиан Романовский / Kristian Romanovski
Издатель: DeAgostini
Описание: Это вдохновляющая коллекция для тех, кто любит природу, путешествия и увлекается историей. Все достопримечательности, которые вы встретите на страницах журнала, включены в Список объектов Всемирного наследия ЮНЕСКО. Каждый номер журнала комплектуется DVD, повествующим о мировых культурных сокровищах и достижениях цивилизаций. Новая вдохновляющая коллекция для тех, кто любит природу, путешествия и историю.
01. Троя - Легендарный древний город Руины древнего города Трои, лежащие на северо-западе Турции, - это одно из наиболее знаменитых мест археологических раскопок в мире. История 10-летней осады города была увековечена Гомером в его эпической поэме "Илиада".
02. Кусейр-Амра - Замок в пустыне Построенный Омейядами в VIII веке "дворец наслаждений" расположен в пустыне, к востоку от столицы Иордании, Аммана, и на удивление хорошо сохранился. Основными достопримечательности замка считаются зал для приёмов, бани и красочные сюжетными фрески.
03. Алеппо - Тысячелетний город Обитаемый на протяжении тысяч лет сирийский город Алеппо считается одним из древнейших на нашей планете. В уникальную городскую застройку вплетены крепость XIII века, многочисленные медресе, мечети и ханы (постоялые дворы).
Качество: DVDRip
Формат: AVI
Видео : 688x384 (1.79:1), 25 fps, XviD build 65 ~2029 kbps avg, 0.31 bit/pixel
Аудио 1: 48 kHz, AC3 Dolby Digital, 2/0 (L,R) ch, ~192 kbps [Русский]
Аудио 2: 48 kHz, AC3 Dolby Digital, 2/0 (L,R) ch, ~192 kbps [украинский]


Код: Выделить всё

General
Complete name                            : НЧ.В35_01 - Троя.avi
Format                                   : AVI
Format/Info                              : Audio Video Interleave
File size                                : 252 MiB
Duration                                 : 14mn 29s
Overall bit rate                         : 2 426 Kbps
Movie name                               : '.
Writing application                      : V
Video
ID                                       : 0
Format                                   : MPEG-4 Visual
Format profile                           : Advanced Simple@L5
Format settings, BVOP                    : 1
Format settings, QPel                    : No
Format settings, GMC                     : No warppoints
Format settings, Matrix                  : Custom
Codec ID                                 : XVID
Codec ID/Hint                            : XviD
Duration                                 : 14mn 29s
Bit rate                                 : 2 030 Kbps
Width                                    : 688 pixels
Height                                   : 384 pixels
Display aspect ratio                     : 16:9
Frame rate                               : 25.000 fps
Color space                              : YUV
Chroma subsampling                       : 4:2:0
Bit depth                                : 8 bits
Scan type                                : Progressive
Compression mode                         : Lossy
Bits/(Pixel*Frame)                       : 0.307
Stream size                              : 211 MiB (84%)
Writing library                          : XviD 65
Audio #1
ID                                       : 1
Format                                   : AC-3
Format/Info                              : Audio Coding 3
Mode extension                           : CM (complete main)
Format settings, Endianness              : Big
Codec ID                                 : 2000
Duration                                 : 14mn 23s
Bit rate mode                            : Constant
Bit rate                                 : 192 Kbps
Channel(s)                               : 2 channels
Channel positions                        : Front: L R
Sampling rate                            : 48.0 KHz
Bit depth                                : 16 bits
Compression mode                         : Lossy
Delay relative to video                  : 8ms
Stream size                              : 19.8 MiB (8%)
Alignment                                : Split accross interleaves
Interleave, duration                     : 40 ms (1.01 video frame)
Interleave, preload duration             : 500 ms
Audio #2
ID                                       : 2
Format                                   : AC-3
Format/Info                              : Audio Coding 3
Mode extension                           : CM (complete main)
Format settings, Endianness              : Big
Codec ID                                 : 2000
Duration                                 : 14mn 23s
Bit rate mode                            : Constant
Bit rate                                 : 192 Kbps
Channel(s)                               : 2 channels
Channel positions                        : Front: L R
Sampling rate                            : 48.0 KHz
Bit depth                                : 16 bits
Compression mode                         : Lossy
Delay relative to video                  : 8ms
Stream size                              : 19.8 MiB (8%)
Alignment                                : Split accross interleaves
Interleave, duration                     : 40 ms (1.01 video frame)
Interleave, preload duration             : 500 ms
Спасибо Dog67 за DVD5Релиз от группы
У вас нет необходимых прав для просмотра вложений в этом сообщении.