Обнаженная магия / Magia Nuda (Mondo Magic) (Альфредо Кастильони, Анджело Кастильони) [1975, Документальный, DVDRip]

Познавательные материалы о странах мира
Торрент Сидеров Личеров Размер
torrent_2948614.torrent
0 0 672.92 МБ
Аватара пользователя
Солнышко
Сообщения: 22944
Зарегистрирован: 13 янв 2016, 22:10

Обнаженная магия / Magia Nuda (Mondo Magic) (Альфредо Кастильони, Анджело Кастильони) [1975, Документальный, DVDRip]

Сообщение Солнышко » 26 мар 2018, 14:27

Обнаженная магия / Magia Nuda (Mondo Magic)
Год выпуска: 1975
Страна: Италия
Жанр: Документальный
Продолжительность: 1:33:04
Перевод: Профессиональный (одноголосый)
Режиссер: Альфредо Кастильони, Анджело Кастильони, Гуидо Геррасио
В ролях:
Текст читает: Альберто Моравиа
Композитор: А. Франческо Лаваньино
Описание: "Обнаженная магия" очень познавательный фильм о традициях и обрядах социально неразвитых племён, снятый братьями Кастильони в начале 70-ых годов прошлого века. Некоторые обычаи, показанные в фильме, у цивилизованного человека могут вызвать непонимание или даже отвращение, но для героев этого фильма всё это обычная повседневность, к которой они привыкли с детства. Сейчас же, под под натиском западной цивилизации, уже почти исчезли эти островки близости человека к природе, живущих в единении с ней.
Интереснейший документальный фильм с уникальными кадрами рассказывает о примитивных цивилизациях Африки, Латинской Америки, Азии... Вы узнаете обычаи и жизнь, ритуалы этих живущих также, как и тысячи лет назад, людей. Лицам до 16 лет, и с неуравновешенной психикой, этот фильм смотреть не рекомендуется, так как сцены в фильме сняты предельно откровенно, некоторые эпизоды могут быть оценены как шокирующие.
Доп. информация:

Поскольку этот фильм "гуляет по просторам" интернета в формате DVDRip, но только с оригинальной итальянской звуковой дорожкой,
решил исправить эту ситуацию. Исходником и послужил DVDRip, который я скачал несколько лет назад на одном из файлообменников,
и который идентичен большинству размещённых в интернете копий, одна из которых есть и на rutracker.org, вот (без перевода).
Перевод я взял с собственноручно оцифрованной VHS-кассеты.
Синхронизацию с видео и обработку я производил в программе Adobe Audition,
после чего сделал обратное сведение видео и звука (muxing) программой VirtualDub.
Видео, естественно, не пережималось, и 100% идентично оригиналу.
Кстати, с VHS я сделал полный рип в формате DVD Video, но так как само видео на кассете было хуже качества DVD-рипа,
я даже не думал делать раздачу на трекере с этим DVD. Пришлось заняться синхронизацией моего аудио с видео существующего рипа,
на что ушло много времени, но это тема уже для другого разговора...
Aвтор музыки заглавной темы к фильму - А. Франческо Лаваньино (Angelo Francesco Lavagnino), композиция называется "Soleado", в исполнении Daniel Sentacruz Ensemble
Кого заинтересует эта музыка, её он может найти вот здесь
Качество: DVDRip
Формат: AVI
Видео кодек: DivX
Аудио кодек: MP3
Видео: 352x288, 25.00 fps, 873 Kbps (AVG)
Аудио: MPEG Audio Layer 3, 2 ch., 44100Hz, 16 bit, 128Kbps (CBR)


Код:

Код: Выделить всё

Полное имя                       : Magia nuda_1975_[Rus-APK].avi
Формат                           : AVI
Формат/Информация                : Audio Video Interleave
Размер файла                     : 673 MiB
Продолжительность                : 1h 33mn
Общий поток                      : 1 011 Kbps
Программа кодирования            : Nandub v1.0rc2
Библиотека кодирования           : VirtualDub build 32618/release
Video
Идентификатор                    : 0
Формат                           : MPEG-4 Visual
Параметры BVOP формата           : Yes
Параметры QPel формата           : No
Параметры GMC формата            : 2 warppoints
Параметры матрицы формата        : Default (H.263)
Режим смешивания                 : Packed bitstream
Идентификатор кодека             : DX50
Идентификатор кодека/Подсказка   : DivX 5
Продолжительность                : 1h 33mn
Битрейт                          : 873 Kbps
Ширина                           : 352 pixels
Высота                           : 288 pixels
Соотношение кадра                : 1.222
Частота кадров                   : 25.000 fps
Разрешение                       : 8 bits
Колориметрия                     : 4:2:0
Тип развёртки                    : Progressive
Бит/(Пиксели*Кадры)              : 0.344
Размер потока                    : 581 MiB (86%)
Библиотека кодирования           : DivX 5.0.5 (UTC 2003-04-24)
Audio
Идентификатор                    : 1
Формат                           : MPEG Audio
Версия формата                   : Version 1
Профайл формата                  : Layer 3
Режим                            : Joint stereo
Format_Settings_ModeExtension    : MS Stereo
Идентификатор кодека             : 55
Идентификатор кодека/Подсказка   : MP3
Продолжительность                : 1h 33mn
Вид битрейта                     : Constant
Битрейт                          : 128 Kbps
Канал(ы)                         : 2 channels
Частота                          : 44.1 KHz
Размер потока                    : 85.2 MiB (13%)
Выравнивание                     : Split accross interleaves
Продолжительность промежутка     : 40 ms (1.00 video frame)
Время предзагрузки промежутка    : 500 ms
Библиотека кодирования           : LAME3.97
Настройки программы              : -m j -V 4 -q 3 -lowpass 17 -b 128
[/spoiler]
У вас нет необходимых прав для просмотра вложений в этом сообщении.