Культурное наследие Франции / Le monument prefere des Francais 2015 (Фабрис Мишлен / Fabrice Michelin) [2015, документал

Познавательные материалы о странах мира
Торрент Сидеров Личеров Размер
torrent_5143606.torrent
0 0 2.81 ГБ
Аватара пользователя
Солнышко
Сообщения: 22944
Зарегистрирован: 13 янв 2016, 22:10

Культурное наследие Франции / Le monument prefere des Francais 2015 (Фабрис Мишлен / Fabrice Michelin) [2015, документал

Сообщение Солнышко » 26 мар 2018, 14:43

Культурное наследие Франции
Le monument préféré des Français 2015
#77Дата/Год выпуска: 2015
Страна: Франция
Жанр: документальный, путешествия
Продолжительность: 02:04:31
Перевод: Субтитры
Доп. инфо о переводе: русский перевод И.Безлюдной, Éclair Media
Русские субтитры: естьФормат субтитров: prerendered (IDX+SUB)
Доп. информация о субтитрах: русские, английские, французские, немецкие, нидерландские, румынские
Оригинальная аудиодорожка: французский
Режиссер: Фабрис Мишлен / Fabrice Michelin
Телеканал: TV5MONDE Europe
Описание: Во втором сезоне передачи, посвященной историческому и культурному наследию, Стефан Берн / Stéphane Bern приглашает вас посетить самые знаменитые достопримечательности 22 французских регионов. Каждый регион представил кандидата на конкурс. Наши эксперты вспомнят забавные истории, связанные с посещаемыми местами. Весной 300 тысяч пользователей интернета проголосовали на сайте France 2 за самый интересный памятник культуры, архитектуры или истории. Кто станет сегодня финалистом конкурса на звание любимой достопримечательности французов?
Доп. информация: Hot Bird (13.0°E) TV5MONDE Europe DVB-S
качество: DVB
формат: MKV
Видео: MPEG Video 2, 720x576 (16:9), 25 fps, ~2970 kbps avg, 0.286 bit/pixel
Аудио: MPEG Audio 2, 2 ch, 48 kHz, 192 kbps - французский

Код: Выделить всё

Topfield SRP-2410 – запись спутниковой трансляции DVB-S (.rec)
ProjectX 0.91.0.10 - разбор контейнера, удаление рекламы и доп. информации
BD Sup2Sub 5.1.2 – конвертация DVB-субтитров (IFO+SUP) -> (IDX+SUB)
MKVToolNix GUI 8.7.0 – сборка в контейнер MKV
MkvTagger – редактирование тегов

Код: Выделить всё

Общее
Уникальный идентификатор                 : 222960919687920541532492228555303308799 (0xA7BCB60EF15885849728AA7B9F184DFF)
Полное имя                               : F:\My Torrents 3\[apreder]Le_monument_prefere_des_Francais(2015)DVB.mkv
Формат                                   : Matroska
Версия формата                           : Version 2
Размер файла                             : 2,81 Гбайт
Продолжительность                        : 2 ч. 4 м.
Общий поток                              : 3226 Кбит/сек
Название фильма                          : Le monument préféré des Français 2015
Дата выпуска                             : 2015-00-00
Дата кодирования                         : UTC 2016-01-03 12:14:45
Программа кодирования                    : mkvmerge v8.7.0 ('All of the above') 64bit
Библиотека кодирования                   : libebml v1.3.3 + libmatroska v1.4.4
Обложка                                  : Yes
Attachments                              : cover.jpg / cover_small.jpg
ACTOR                                    : Stéphane Bern
DIRECTOR                                 : Fabrice Michelin
GENRE                                    : Documentary
KEYWORDS                                 : rutracker.org
LAW_RATING                               : 12+
Видео
Идентификатор                            : 1
Формат                                   : MPEG Video
Версия формата                           : Version 2
Профиль формата                          : Main@Main
Параметр BVOP формата                    : Да
Параметр матрицы формата                 : Выборочная
Параметр GOP формата                     : M=4, N=12
Format_Settings_PictureStructure         : Frame
Идентификатор кодека                     : V_MPEG2
Идентификатор кодека/Информация          : MPEG 1 or 2 Video
Продолжительность                        : 2 ч. 4 м.
Битрейт                                  : 2970 Кбит/сек
Максимальный битрейт                     : 3200 Кбит/сек
Ширина                                   : 720 пикселей
Высота                                   : 576 пикселей
Соотношение сторон                       : 16:9
Режим частоты кадров                     : Постоянный
Частота кадров                           : 25,000 кадров/сек
Стандарт вещания                         : PAL
Цветовое пространство                    : YUV
Субдискретизация насыщенности            : 4:2:0
Битовая глубина                          : 8 бит
Тип развёртки                            : Чересстрочная
Порядок развёртки                        : Верхнее поле первое
Метод сжатия                             : С потерями
Бит/(Пиксели*Кадры)                      : 0.286
Размер потока                            : 2,58 Гбайт (92%)
Default                                  : Да
Forced                                   : Нет
Аудио
Идентификатор                            : 2
Формат                                   : MPEG Audio
Версия формата                           : Version 1
Профиль формата                          : Layer 2
Режим                                    : Joint stereo
Расширение режима                        : Intensity Stereo + MS Stereo
Идентификатор кодека                     : A_MPEG/L2
Идентификатор кодека/Подсказка           : MP2
Продолжительность                        : 2 ч. 4 м.
Вид битрейта                             : Постоянный
Битрейт                                  : 192 Кбит/сек
Каналы                                   : 2 канала
Частота                                  : 48,0 КГц
Метод сжатия                             : С потерями
Задержка видео                           : -10 мс.
Размер потока                            : 171 Мбайт (6%)
Язык                                     : French
Default                                  : Да
Forced                                   : Нет
Текст #1
Идентификатор                            : 3
Формат                                   : VobSub
Идентификатор кодека                     : S_VOBSUB
Идентификатор кодека/Информация          : Picture based subtitle format used on DVDs
Язык                                     : Russian
Default                                  : Да
Forced                                   : Нет
Текст #2
Идентификатор                            : 4
Формат                                   : VobSub
Идентификатор кодека                     : S_VOBSUB
Идентификатор кодека/Информация          : Picture based subtitle format used on DVDs
Язык                                     : English
Default                                  : Нет
Forced                                   : Нет
Текст #3
Идентификатор                            : 5
Формат                                   : VobSub
Идентификатор кодека                     : S_VOBSUB
Идентификатор кодека/Информация          : Picture based subtitle format used on DVDs
Язык                                     : French
Default                                  : Нет
Forced                                   : Нет
Текст #4
Идентификатор                            : 6
Формат                                   : VobSub
Идентификатор кодека                     : S_VOBSUB
Идентификатор кодека/Информация          : Picture based subtitle format used on DVDs
Язык                                     : German
Default                                  : Нет
Forced                                   : Нет
Текст #5
Идентификатор                            : 7
Формат                                   : VobSub
Идентификатор кодека                     : S_VOBSUB
Идентификатор кодека/Информация          : Picture based subtitle format used on DVDs
Язык                                     : Dutch
Default                                  : Нет
Forced                                   : Нет
Текст #6
Идентификатор                            : 8
Формат                                   : VobSub
Идентификатор кодека                     : S_VOBSUB
Идентификатор кодека/Информация          : Picture based subtitle format used on DVDs
Язык                                     : Romanian
Default                                  : Нет
Forced                                   : Нет



[2'818]
У вас нет необходимых прав для просмотра вложений в этом сообщении.