Школа выживания. Байкал. Вдали от цивилизации [2011, Документальный, DVB]

Познавательные материалы о странах мира
Торрент Сидеров Личеров Размер
torrent_3930410.torrent
0 0 620.16 МБ
Аватара пользователя
Солнышко
Сообщения: 22944
Зарегистрирован: 13 янв 2016, 22:10

Школа выживания. Байкал. Вдали от цивилизации [2011, Документальный, DVB]

Сообщение Солнышко » 26 мар 2018, 14:45

Школа выживания. Байкал. Вдали от цивилизации
Год выпуска: 2011
Страна: Россия
Жанр: Документальный
Продолжительность: 00:24:26
Перевод: Не требуется
Описание: Байкал. Одно из самых красивых озер на планете. Но, к сожалению, очень часто туристы, отправляясь в поход по Байкалу, недооценивают опасности этого озера. Что делать, если на воде у вас случилась внештатная ситуация, вы отрезаны от цивилизации, и у вас нет средств связи? Анастасия Трегубова и специалист-спасатель МЧС РФ Владимир Донин на своем примере покажут, как выжить, попав в эту непростую ситуацию.
Качество: DVB
Формат: MPEG
Видео кодек: MPEG2
Аудио кодек: MPEG1 Layer 2
Видео: MPEG2 Video 720x576 (4:3) 25.00fps ~3 286 Kbps
Аудио: MPEG Audio 48000Hz 2 channels 192 Кбит/сек
H:\03__Моя планета\Школа выживания. Байкал. Вдали от цивилизации_DVB by kuzmichm2196 .mpg
General
Complete name : H:\03__Моя планета\Школа выживания. Байкал. Вдали от цивилизации_DVB by kuzmichm2196 .mpg
Format : MPEG-PS
File size : 620 MiB
Duration : 24mn 26s
Overall bit rate : 3 548 Kbps
Writing library : (c) 1998-2008 Womble Multimedia, Inc. / MPEG Video Wizard (08/2008) / Aug 25 2008
Video #224
ID : 224 (0xE0)
Format : MPEG Video
Format version : Version 2
Format profile : Main@Main
Format settings, BVOP : Yes
Format settings, Matrix : Custom
Format settings, GOP : M=1, N=17
Duration : 24mn 26s
Bit rate mode : Variable
Bit rate : 3 286 Kbps
Nominal bit rate : 15.0 Mbps
Width : 720 pixels
Height : 576 pixels
Display aspect ratio : 4:3
Frame rate : 25.000 fps
Standard : PAL
Color space : YUV
Chroma subsampling : 4:2:0
Bit depth : 8 bits
Scan type : Interlaced
Scan order : Top Field First
Compression mode : Lossy
Bits/(Pixel*Frame) : 0.317
Stream size : 574 MiB (93%)
Writing library : (c) 1998-2008 Womble Multimedia, Inc. / MPEG Video Wizard (08/2008) / Aug 25 2008
Audio #192
ID : 192 (0xC0)
Format : MPEG Audio
Format version : Version 1
Format profile : Layer 2
Duration : 24mn 26s
Bit rate mode : Constant
Bit rate : 192 Kbps
Channel(s) : 2 channels
Sampling rate : 48.0 KHz
Compression mode : Lossy
Stream size : 33.6 MiB (5%)
У вас нет необходимых прав для просмотра вложений в этом сообщении.