Неаполь. Легенды и люди [2011, Путешествия и туризм, TVRip]

Познавательные материалы о странах мира
Торрент Сидеров Личеров Размер
torrent_3887571.torrent
0 0 252.54 МБ
Аватара пользователя
Солнышко
Сообщения: 22944
Зарегистрирован: 13 янв 2016, 22:10

Неаполь. Легенды и люди [2011, Путешествия и туризм, TVRip]

Сообщение Солнышко » 26 мар 2018, 14:45

Неаполь. Легенды и люди
Год выпуска: 2011
Страна: Россия
Жанр: Путешествия и туризм
Продолжительность: 00:27:12
Перевод: Не требуется
Русские субтитры: нет
Эфир: 25.12.2011
Качество: TVRip
Формат: MP4
Видео кодек: H.264
Аудио кодек: AAC
Видео: Bit rate: 1 200 Kbps, Width: 704 pixels, Height: 528 pixels, Display aspect ratio: 4:3, Frame rate : 25.000 fps
Аудио: Bit rate 96.0 Kbps; Maximum bit rate: 186 Kbps, Channel(s) : 2 channels, Sampling rate: 48.0 KHz
Проект телеканала Россия 24
Описание: Этот город на юге Италии так же прекрасен, как Рим, Венеция или Флоренция. Его величие и красота абсолютно неоспоримы. Еще в начале XIX века люди говорили: "Если ты увидел Неаполь, можешь спокойно умирать".
Формат : MPEG-4
Профиль формата : Base Media / Version 2
Идентификатор кодека : mp42
Размер файла : 253 Мбайт
Продолжительность : 27 м.
Режим общего битрейта : Переменный
Общий поток : 1298 Кбит/сек
Дата кодирования : UTC 2011-12-25 09:23:15
Дата пометки : UTC 2011-12-25 09:23:15
Видео
Идентификатор : 1
Формат : AVC
Формат/Информация : Advanced Video Codec
Профиль формата : High@L3.0
Параметр CABAC формата : Да
Параметр ReFrames формата : 2 кадра
Идентификатор кодека : avc1
Идентификатор кодека/Информация : Advanced Video Coding
Продолжительность : 27 м.
Вид битрейта : Постоянный
Битрейт : 1200 Кбит/сек
Ширина : 704 пикселя
Высота : 528 пикселей
Соотношение сторон : 4:3
Режим частоты кадров : Постоянный
Частота кадров : 25,000 кадров/сек
Цветовое пространство : YUV
Субдискретизация насыщенности : 4:2:0
Битовая глубина : 8 бит
Тип развёртки : Прогрессивная
Бит/(Пиксели*Кадры) : 0.129
Размер потока : 233 Мбайт (92%)
Язык : English
Дата кодирования : UTC 2011-12-25 09:23:15
Дата пометки : UTC 2011-12-25 09:23:15
Аудио
Идентификатор : 2
Формат : AAC
Формат/Информация : Advanced Audio Codec
Профиль формата : HE-AAC / LC
Идентификатор кодека : 40
Продолжительность : 27 м.
Вид битрейта : Переменный
Битрейт : 96,0 Кбит/сек
Максимальный битрейт : 186 Кбит/сек
Каналы : 2 канала
Расположение каналов : Front: L R
Частота : 48,0 КГц / 24,0 КГц
Метод сжатия : С потерями
Размер потока : 18,4 Мбайт (7%)
Язык : English
Дата кодирования : UTC 2011-12-25 09:23:15
Дата пометки : UTC 2011-12-25 09:23:15
У вас нет необходимых прав для просмотра вложений в этом сообщении.