Аферисты и туристы / Scam City (2 Сезон, 3 серии из ?) [2013, Документальный] HDTVRip

Познавательные материалы о странах мира
Торрент Сидеров Личеров Размер
torrent_4645038.torrent
0 0 1.69 ГБ
Аватара пользователя
Солнышко
Сообщения: 22944
Зарегистрирован: 13 янв 2016, 22:10

Аферисты и туристы / Scam City (2 Сезон, 3 серии из ?) [2013, Документальный] HDTVRip

Сообщение Солнышко » 26 мар 2018, 14:45

Аферисты и туристы / Scam City
Год выпуска: 2013
Страна: США, National Geographic
Жанр: Документальный
Продолжительность: ~ 00:43:59
Перевод: Профессиональный (дублированный)
Русские субтитры: нет
Описание: Каждый год сотни миллионов туристов едут в далекие края в поисках приключений. И каждый год для многих из них эти приключения заканчиваются весьма плачевно. Любой может стать жертвой преступников, но, кажется, туристы просто созданы для этого. Однако теперь поводов для волнения станет меньше – мы предлагаем наш ликбез для незадачливых туристов! Съемочная группа программы «Аферисты и туристы» отправляется в самые популярные места на планете и показывает их глазами местных аферистов, воров и мошенников – тех, кто видит в каждом приезжем свою потенциальную жертву. Считайте эту программу столь же важной частью подготовки к отпуску, как и упаковку чемоданов, ведь она поможет вам быть начеку и сохранить свои деньги.
качество: HDTVRip
формат: AVI
Видео:XviD. 720x400 (16:9) 25.00fps : ~ 1432 Кбит/сек
Аудио: Русский AC3, 2 ch, 192 Кбит/с
Аудио: Английский AC3, 2 ch, 192 Кбит/с
Официальный сайт РУ
Релиз
01. Новый Орлеан
В Новом Орлеане Конор находит самых разных мошенников: от уличных жуликов до опытных бандитов, занимающихся рэкетом в казино.
02. Мехико
Конор отправляется в Мехико, чтобы больше узнать о преступниках, которые убивают, похищают и вымогают на живописных улицах этого города.
03. Нью-Йорк
Конор Вудман погружается в жизнь Нью-Йорка и узнает, что жесткие меры по отношению к жуликам, обманывающим туристов, не очистили от них улицы.
В первой серии (Новый Орлеан),отсутствует 7 секунд перевода.
При каждом добавлении создаётся новый торрент. Чтобы начать докачку нового выпуска, пользователям необходимо сделать следующее:
● остановить скачивание;
● удалить старый торрент у себя из клиента (старые выпуски удалять не надо);
● скачать новый торрент и запустить его у себя в клиенте вместо старого, при этом указать клиенту путь в старую папку куда и должно происходить скачивание новых выпусков;
● ваш клиент при запуске должен произвести хеширование (проверку) старой папки (если не производит сам - помогите ему сделать это), и будет докачивать только те выпуски, которых у вас ещё нет. Старые выпуски при этом не удаляются, а продолжают раздаваться!
● Eсли вы уже удалили старые выпуски, то предотвратить повторную закачку старых выпусков можно, отжав галочку в соответсвующих местах при запуске нового торрента.
Format : AVI
Format/Info : Audio Video Interleave
File size : 573 MiB
Duration : 43mn 59s
Overall bit rate : 1 820 Kbps
Writing application : VirtualDubModRus 1.5.10.2 (build 2542/release)
Writing library : VirtualDubMod build 2542/release
Video
ID : 0
Format : MPEG-4 Visual
Format profile : Advanced Simple@L5
Format settings, BVOP : 2
Format settings, QPel : No
Format settings, GMC : No warppoints
Format settings, Matrix : Default (H.263)
Codec ID : XVID
Codec ID/Hint : XviD
Duration : 43mn 59s
Bit rate : 1 422 Kbps
Width : 720 pixels
Height : 400 pixels
Display aspect ratio : 16:9
Frame rate : 25.000 fps
Color space : YUV
Chroma subsampling : 4:2:0
Bit depth : 8 bits
Scan type : Progressive
Compression mode : Lossy
Bits/(Pixel*Frame) : 0.197
Stream size : 447 MiB (78%)
Writing library : XviD 1.2.1 (UTC 2008-12-04)
Audio #1
ID : 1
Format : AC-3
Format/Info : Audio Coding 3
Mode extension : CM (complete main)
Format settings, Endianness : Big
Codec ID : 2000
Duration : 43mn 59s
Bit rate mode : Constant
Bit rate : 192 Kbps
Channel count : 2 channels
Channel positions : Front: L R
Sampling rate : 48.0 KHz
Bit depth : 16 bits
Compression mode : Lossy
Stream size : 60.4 MiB (11%)
Alignment : Split accross interleaves
Interleave, duration : 40 ms (1.00 video frame)
Interleave, preload duration : 500 ms
Audio #2
ID : 2
Format : AC-3
Format/Info : Audio Coding 3
Mode extension : CM (complete main)
Format settings, Endianness : Big
Codec ID : 2000
Duration : 43mn 59s
Bit rate mode : Constant
Bit rate : 192 Kbps
Channel count : 2 channels
Channel positions : Front: L R
Sampling rate : 48.0 KHz
Bit depth : 16 bits
Compression mode : Lossy
Stream size : 60.4 MiB (11%)
Alignment : Split accross interleaves
Interleave, duration : 40 ms (1.00 video frame)
Interleave, preload duration : 500 ms
Если вы скачали данный релиз и хотите выложить его на другом ресурсе -
пожалуйста, указывайте первоисточник ,имейте уважение, к другим!
У вас нет необходимых прав для просмотра вложений в этом сообщении.