Наследие человечества. Выпуск 26: Квебек, Йосемити, Статуя Свободы (Романовский / Kristian Romanovski) [2011, Документал

Познавательные материалы о странах мира
Торрент Сидеров Личеров Размер
torrent_4578710.torrent
0 0 764.21 МБ
Аватара пользователя
Солнышко
Сообщения: 22944
Зарегистрирован: 13 янв 2016, 22:10

Наследие человечества. Выпуск 26: Квебек, Йосемити, Статуя Свободы (Романовский / Kristian Romanovski) [2011, Документал

Сообщение Солнышко » 26 мар 2018, 14:47

Наследие человечества. Выпуск 26
Италия - Квебек, Йосемити, Статуя Свободы
Год выпуска: 2011
Страна: Германия, Россия
Жанр: Документальный
Продолжительность: 00:42:24
Перевод: Профессиональный (одноголосый)
Русские субтитры: нет
Режиссёр: Кристиан Романовский / Kristian Romanovski
Издатель: DeAgostini
Описание: Фильм для тех, кто любит природу, путешествия и увлекается историей. Сегодня вы прогуляетесь по старенькому Квебеку, уникальному городку в Северной Америке, который сохранил свои оборонительные сооружения еще с 1608 года. Затем мы перенесемся в Национальный парк Йосемити штата Калифорния, США. Живописные пейзажи, водопады, нависающие скалы, созданные ледником на склонах горного хребта Сьерра-Невада, привлекают туристов со всего света. И, наконец, всемирно популярная Статуя Свободы в Нью-Йорке, подарок Франции к столетию независимости США в 1886 году. По сей день памятник является "эмблемой" Америки и ее главной достопримечательностью.
01. Старый Квебек: Укрепленный город - Основанный французским исследователем Сэмюэлем де Шампленом в 1608 году старый Квебек в Канаде - единственный город в Северной Америке, сохранивший свои оборонительные сооружения. Стратегически важное положение города определило его ключевую роль в истории французской Канады.
02. Национальный парк Йосемити - Со своими нависающими скалами. U-образными долинами, водопадами, озерами, отполированными гранитными "куполами" и реками, национальный парк Йосемити в штате Калифорния, США, предлагает туристам удивительные по красоте пейзажи, созданные ледником на западных склонах горного хребта Сьерра-Невада.
03. Статую Свободы в Нью-Йорке - Этот величественный памятник Свободе - подарок от Франции к столетию провозглашения независимости США в 1886 году. Установленный при входе в гавань Нью-Йорка памятник приветствовал миллионы эмигрантов, прибывавших в Америку со всех концов света.
Качество: DVDRip
Формат: AVI
Видео : 688x384 (1.79:1), 25 fps, XviD build 65 ~2061 kbps avg, 0.31 bit/pixel
Аудио 1 : 48 kHz, AC3 Dolby Digital, 2/0 (L,R) ch, ~192 kbps [Русский]
Аудио 2: 48 kHz, AC3 Dolby Digital, 2/0 (L,R) ch, ~192 kbps [украинский]


Код: Выделить всё

General
Complete name                            : Наследие человечества. Выпуск 26\НЧ.В26_03 Статуя Свободы.avi
Format                                   : AVI
Format/Info                              : Audio Video Interleave
File size                                : 251 MiB
Duration                                 : 14mn 14s
Overall bit rate                         : 2 461 Kbps
Movie name                               : '.
Writing application                      : V
Video
ID                                       : 0
Format                                   : MPEG-4 Visual
Format profile                           : Advanced Simple@L5
Format settings, BVOP                    : 1
Format settings, QPel                    : No
Format settings, GMC                     : No warppoints
Format settings, Matrix                  : Custom
Codec ID                                 : XVID
Codec ID/Hint                            : XviD
Duration                                 : 14mn 14s
Bit rate                                 : 2 062 Kbps
Width                                    : 688 pixels
Height                                   : 384 pixels
Display aspect ratio                     : 16:9
Frame rate                               : 25.000 fps
Color space                              : YUV
Chroma subsampling                       : 4:2:0
Bit depth                                : 8 bits
Scan type                                : Progressive
Compression mode                         : Lossy
Bits/(Pixel*Frame)                       : 0.312
Stream size                              : 210 MiB (84%)
Writing library                          : XviD 65
Audio #1
ID                                       : 1
Format                                   : AC-3
Format/Info                              : Audio Coding 3
Mode extension                           : CM (complete main)
Format settings, Endianness              : Big
Codec ID                                 : 2000
Duration                                 : 14mn 14s
Bit rate mode                            : Constant
Bit rate                                 : 192 Kbps
Channel(s)                               : 2 channels
Channel positions                        : Front: L R
Sampling rate                            : 48.0 KHz
Bit depth                                : 16 bits
Compression mode                         : Lossy
Delay relative to video                  : 16ms
Stream size                              : 19.5 MiB (8%)
Alignment                                : Split accross interleaves
Interleave, duration                     : 40 ms (1.00 video frame)
Interleave, preload duration             : 500 ms
Audio #2
ID                                       : 2
Format                                   : AC-3
Format/Info                              : Audio Coding 3
Mode extension                           : CM (complete main)
Format settings, Endianness              : Big
Codec ID                                 : 2000
Duration                                 : 14mn 14s
Bit rate mode                            : Constant
Bit rate                                 : 192 Kbps
Channel(s)                               : 2 channels
Channel positions                        : Front: L R
Sampling rate                            : 48.0 KHz
Bit depth                                : 16 bits
Compression mode                         : Lossy
Delay relative to video                  : 16ms
Stream size                              : 19.5 MiB (8%)
Alignment                                : Split accross interleaves
Interleave, duration                     : 40 ms (1.00 video frame)
Interleave, preload duration             : 500 ms
Спасибо Dog67 за DVD5Релиз от группы
У вас нет необходимых прав для просмотра вложений в этом сообщении.