Биомимикрия. Подражание природе (1-4 серия из ?) / Biomimicry. Inspired by Nature (Андре Рессе / Andre Rehse) [2011, Документальный, SATRip]

Планета земля, природа-мать все о ней
Торрент Сидеров Личеров Размер
torrent_4858787.torrent
0 0 2.83 ГБ
Аватара пользователя
Солнышко
Сообщения: 22944
Зарегистрирован: 13 янв 2016, 22:10

Биомимикрия. Подражание природе (1-4 серия из ?) / Biomimicry. Inspired by Nature (Андре Рессе / Andre Rehse) [2011, Документальный, SATRip]

Сообщение Солнышко » 01 апр 2018, 12:47

Биомимикрия. Подражание природе / Biomimicry. Inspired by Nature
Дата/Год выпуска: 2011
Страна: Франция, Германия, ZDF, ARTE, Gebrueder Beetz Film
Жанр: Документальный, познавательный
Продолжительность: 4 x ~ 00:51:59
Перевод: Профессиональный (дублированный)
Русские субтитры: нет
Оригинальная аудиодорожка: нет
Режиссер: Андре Рессе / Andre Rehse
Описание: Останкинская башня – создана по образу и подобию колоса. Прочнейшие нити – позаимствованы у пауков. А технология прибора ночного видения – у кошек. Иногда не нужно ничего изобретать. Природа уже придумала многое за нас.
Семпл: http://sendfile.su/1043045
качество: SATRip
формат: AVI
Видео: Xvid 720x400 25fps 1 750 Kbps
Аудио: AC3 48000Hz stereo 192kbps
Содержание:
01. Искусство движения / The Art of Movenent
02. Эффективное строительство / Building with Efficiency
03. Упорядоченный хаос / Order in Chaos
04. Поверхности будущего / Fabrics of the Future

Код: Выделить всё

E:\ЗАМЕНА____\Биомимикрия. Подражание природе. Искусство движения.2011.XviD.SATRip.avi
   General
      Complete name : E:\ЗАМЕНА____\Биомимикрия. Подражание природе. Искусство движения.2011.XviD.SATRip.avi
      Format : AVI
      Format/Info : Audio Video Interleave
      File size : 726 MiB
      Duration : 51mn 59s
      Overall bit rate : 1 951 Kbps
      Movie name : Biomimicry. Inspired by Nature
      Director : SATRip by Thunder
      Writing application : VirtualDubMod 1.5.10.3 | www.virtualdub-fr.org || (build 2550/release)
      Original source form/Name : Documentary
   Video #0
      ID : 0
      Format : MPEG-4 Visual
      Format profile : Advanced Simple@L5
      Format settings, BVOP : Yes
      Format settings, QPel : No
      Format settings, GMC : No warppoints
      Format settings, Matrix : Default (H.263)
      Codec ID : XVID
      Codec ID/Hint : XviD
      Duration : 51mn 59s
      Bit rate : 1 750 Kbps
      Width : 720 pixels
      Height : 400 pixels
      Display aspect ratio : 16:9
      Frame rate : 25.000 fps
      Color space : YUV
      Chroma subsampling : 4:2:0
      Bit depth : 8 bits
      Scan type : Progressive
      Bits/(Pixel*Frame) : 0.243
      Stream size : 651 MiB (90%)
      Writing library : XviD 1.2.1 (UTC 2008-12-04)
   Audio #1
      ID : 1
      Format : AC-3
      Format/Info : Audio Coding 3
      Mode extension : CM (complete main)
      Codec ID : 2000
      Duration : 51mn 59s
      Bit rate mode : Constant
      Bit rate : 192 Kbps
      Channel(s) : 2 channels
      Channel positions : Front: L R
      Sampling rate : 48.0 KHz
      Bit depth : 16 bits
      Stream size : 71.4 MiB (10%)
      Alignment : Split accross interleaves
      Interleave, duration : 40 ms (1.00 video frame)
      Interleave, preload duration : 500 ms

У вас нет необходимых прав для просмотра вложений в этом сообщении.