Сообщение

Происхождение Человека / Human Origins Fall B 2015 [2015, Палеоантропология, WEBRip, ENG] (Видеоурок)

Сообщение Stepan » 07 апр 2018, 23:18

Происхождение Человека / Human Origins Fall B 2015
Страна: США
Тематика: Палеоантропология
Тип раздаваемого материала: Видеоурок
Продолжительность: около 14 часов
Год выпуска: 2015
Язык: Английский
Субтитры: английские
Перевод: Отсутствует
Язык субтитров: английский
Описание: Семинедельный курс по палеоантропологии от Университета штата Аризона. Лекции читает профессор Дональд Джохансон, тот самый палеоантрополог, который обнаружил останки знаменитой "Люси".

Качество: WEBRip
Формат: MP4
Аудио кодек: AAC
Видео: AVC, 1280x720, 16:9, 859 kbps, 23.976 fps
Аудио: AAC, 140 kbps, 48 kHz, stereo
General
Complete name : J:\Courses\Biology\[ASM246x] - Human Origins\Week 1\1.mp4
Format : MPEG-4
Format profile : Base Media
Codec ID : isom
File size : 21.5 MiB
Duration : 2mn 59s
Overall bit rate : 1 005 Kbps
Writing application : Lavf56.25.101
Video
ID : 1
Format : AVC
Format/Info : Advanced Video Codec
Format profile : High@L3.1
Format settings, CABAC : Yes
Format settings, ReFrames : 4 frames
Codec ID : avc1
Codec ID/Info : Advanced Video Coding
Duration : 2mn 59s
Bit rate : 859 Kbps
Width : 1 280 pixels
Height : 720 pixels
Display aspect ratio : 16:9
Frame rate mode : Constant
Frame rate : 23.976 fps
Color space : YUV
Chroma subsampling : 4:2:0
Bit depth : 8 bits
Scan type : Progressive
Bits/(Pixel*Frame) : 0.039
Stream size : 18.4 MiB (86%)
Writing library : x264 core 144 r2533 c8a773e
Encoding settings : cabac=1 / ref=3 / deblock=1:0:0 / analyse=0x3:0x113 / me=hex / subme=7 / psy=1 / psy_rd=1.00:0.00 / mixed_ref=1 / me_range=16 / chroma_me=1 / trellis=1 / 8x8dct=1 / cqm=0 / deadzone=21,11 / fast_pskip=1 / chroma_qp_offset=-2 / threads=36 / lookahead_threads=5 / sliced_threads=0 / nr=0 / decimate=1 / interlaced=0 / bluray_compat=0 / constrained_intra=0 / bframes=3 / b_pyramid=2 / b_adapt=1 / b_bias=0 / direct=1 / weightb=1 / open_gop=0 / weightp=2 / keyint=250 / keyint_min=23 / scenecut=40 / intra_refresh=0 / rc_lookahead=40 / rc=crf / mbtree=1 / crf=27.0 / qcomp=0.60 / qpmin=0 / qpmax=69 / qpstep=4 / ip_ratio=1.40 / aq=1:1.00
Language : English
Audio
ID : 2
Format : AAC
Format/Info : Advanced Audio Codec
Format profile : LC
Codec ID : 40
Duration : 2mn 59s
Bit rate mode : Constant
Bit rate : 140 Kbps
Channel(s) : 2 channels
Channel positions : Front: L R
Sampling rate : 48.0 KHz
Compression mode : Lossy
Stream size : 2.98 MiB (14%)
Language : English



Постеры

Соцсети

 

Статистика

Автор: Stepan
Добавлен: 07 апр 2018, 23:18
Размер: 4.48 ГБ
Размер: 4 814 229 361 байт
Сидеров: 0
Личеров: 0
Скачали: 0
Здоровье: 0%
Статус:
Скорость скачивания: 0 байт/сек
Скорость раздачи: 0 байт/сек
Последний сидер: Нет
Последний личер: Нет
Приватный: Нет (DHT включён)
Школьникам, студентам и педагогам Скачать торрент
Скачать торрент
[ Размер 59.73 КБ / Просмотров 0 ]

Поделиться



  • Похожие торренты
    Ответы
    Просмотры
    Последнее сообщение

Вернуться в Школьникам, студентам и педагогам