Сообщение

Физика невесомости. Урок из космоса (Михаил Куцкий) [2015, космос, наука, физика, SATRip, rus] (Видеоурок)

Сообщение Stepan » 07 апр 2018, 23:20

Физика невесомости. Урок из космоса
Дата/Год выпуска: 2015
Страна: Россия
Жанр: космос, наука, физика
Продолжительность: 00:28:05
Перевод: Не требуется
Русские субтитры: нет
Оригинальная аудиодорожка: русский
Режиссер: Михаил Куцкий
Телеканал: КультураОписание: Телевизионный урок из космоса для школьников. Космонавты с борта Международной космической станции рассказывают о том, как проявляют себя законы физики в условиях невесомости.Сэмпл: https://www.sendspace.com/file/a30tap
качество: SATRip
формат: AVI
Видео: Xvid 704x400 (16:9) 25fps ~1536kbps
Аудио: MP3 48000Hz stereo 192kbps
Код: Выделить всё
General
Complete name                            : J:\Мои раздачи\Физика невесомости. Урок из космоса.avi
Format                                   : AVI
Format/Info                              : Audio Video Interleave
File size                                : 349 MiB
Duration                                 : 28mn 5s
Overall bit rate                         : 1 735 Kbps
Video
ID                                       : 0
Format                                   : MPEG-4 Visual
Format profile                           : Advanced Simple@L5
Format settings, BVOP                    : 2
Format settings, QPel                    : No
Format settings, GMC                     : No warppoints
Format settings, Matrix                  : Default (H.263)
Codec ID                                 : XVID
Codec ID/Hint                            : XviD
Duration                                 : 28mn 5s
Bit rate                                 : 1 534 Kbps
Width                                    : 704 pixels
Height                                   : 400 pixels
Display aspect ratio                     : 16:9
Frame rate                               : 25.000 fps
Color space                              : YUV
Chroma subsampling                       : 4:2:0
Bit depth                                : 8 bits
Scan type                                : Progressive
Compression mode                         : Lossy
Bits/(Pixel*Frame)                       : 0.218
Stream size                              : 308 MiB (88%)
Writing library                          : XviD 64
Audio
ID                                       : 1
Format                                   : MPEG Audio
Format version                           : Version 1
Format profile                           : Layer 3
Mode                                     : Joint stereo
Mode extension                           : MS Stereo
Codec ID                                 : 55
Codec ID/Hint                            : MP3
Duration                                 : 28mn 5s
Bit rate mode                            : Constant
Bit rate                                 : 192 Kbps
Channel(s)                               : 2 channels
Sampling rate                            : 48.0 KHz
Compression mode                         : Lossy
Stream size                              : 38.6 MiB (11%)
Alignment                                : Split accross interleaves
Interleave, duration                     : 40 ms (1.00 video frame)
Interleave, preload duration             : 500 ms

Постеры

Соцсети

 

Статистика

Автор: Stepan
Добавлен: 07 апр 2018, 23:20
Размер: 348.78 МБ
Размер: 365 722 544 байт
Сидеров: 0
Личеров: 0
Скачали: 0
Здоровье: 0%
Статус:
Скорость скачивания: 0 байт/сек
Скорость раздачи: 0 байт/сек
Последний сидер: Нет
Последний личер: Нет
Приватный: Нет (DHT включён)
Школьникам, студентам и педагогам Скачать торрент
Скачать торрент
[ Размер 14.22 КБ / Просмотров 0 ]

Поделиться



  • Похожие торренты
    Ответы
    Просмотры
    Последнее сообщение

Вернуться в Школьникам, студентам и педагогам