Сообщение

Видео уроки ЕГЭ 2014 по математике: 2 варинта от В1 до С4, 38 заданий. (Demo) [2014, Видео репетитор ЕГЭ. Демо, WEBRip, RUS] (Видеоурок)

Сообщение Stepan » 07 апр 2018, 23:22

Видео уроки ЕГЭ 2014 по математике: 2 варинта от В1 до С4, 38 заданий. (Demo)
Страна: Россия
Тематика: Видео репетитор ЕГЭ. Демо.
Тип раздаваемого материала: Видеоурок
Продолжительность: 3:31:09
Год выпуска: 2014
Системные требования:
Звуковая карта + колонки или наушники
Операционная система Windows 95/98/NT/2000/XP
Процессор 700 МГц или выше
Оперативная память 256 Мб и выше
Видеокарта GeForce 4 и выше
Не менее 2 Гб свободного места на жёстком диске
Язык: Русский
Перевод: Не требуется
Качество: WEBRip
Формат: AVI
Видео: xVid; 1280x720 (16:9); 25 fps; 1101 Кбит/сек
Аудио; MP3; 128 Кбит/сек; 1 канал; 44,1 КГц
Код:
Код: Выделить всё
Общее
Полное имя                               : D:\Demo_EGE_2014\lessons\c4.avi
Формат                                   : AVI
Формат/Информация                        : Audio Video Interleave
Размер файла                             : 312 Мбайт
Продолжительность                        : 35 м.
Общий поток                              : 1241 Кбит/сек
Видео
Идентификатор                            : 0
Формат                                   : MPEG-4 Visual
Профиль формата                          : Advanced Simple@L4
Параметр BVOP формата                    : Нет
Параметр QPel формата                    : Нет
Параметр GMC формата                     : Без точки перехода
Параметр матрицы формата                 : Default (H.263)
Идентификатор кодека                     : XVID
Идентификатор кодека/Подсказка           : XviD
Продолжительность                        : 35 м.
Битрейт                                  : 1101 Кбит/сек
Ширина                                   : 1280 пикселей
Высота                                   : 720 пикселей
Соотношение сторон                       : 16:9
Частота кадров                           : 25,000 кадров/сек
Цветовое пространство                    : YUV
Субдискретизация насыщенности            : 4:2:0
Битовая глубина                          : 8 бит
Тип развёртки                            : Прогрессивная
Метод сжатия                             : С потерями
Бит/(Пиксели*Кадры)                      : 0.048
Размер потока                            : 277 Мбайт (89%)
Аудио
Идентификатор                            : 1
Формат                                   : MPEG Audio
Версия формата                           : Version 1
Профиль формата                          : Layer 3
Идентификатор кодека                     : 55
Идентификатор кодека/Подсказка           : MP3
Продолжительность                        : 35 м.
Вид битрейта                             : Постоянный
Битрейт                                  : 128 Кбит/сек
Каналы                                   : 1 канал
Частота                                  : 44,1 КГц
Метод сжатия                             : С потерями
Размер потока                            : 32,2 Мбайт (10%)
Выравнивание                             : Разделение по промежуткам
Продолжительность промежутка             : 26  мс. (0,65 видеокадр)
Библиотека кодирования                   : LAME3.98.2

Описание:
В раздаче представлено 19 пар заданий (всего 38), 2 варианта ЕГЭ 2014 по математике от В1 до С4:
– первый вариант: официальная демоверсия ЕГЭ
– второй вариант: подобные задания для самостоятельного решения, с последующим объяснением учителем.
Данные уроки можно использовать:
– ученикам для самостоятельной подготовки к ЕГЭ;
– учителям для работы в классе.
Здесь Вы увидите Живого репетитора, а не флэш ролик с голосом за кадром. Присутствие настоящего, а не электронного учителя, значительно упрощает обучение. Дисциплинирует, передает интонации и эмоции, акцентирует внимание самым удобным для человека способом – живым общением с профессиональным преподавателем.
В раздаче не только видео решение заданий, но и обучение всем приемам и способам решения двух вариантов ЕГЭ.
Скриншот меню:

Просмотр видео внутри меню:

Просмотр видео во внешнем плеере (1280x720):
Обращаем Ваше внимание, что полноценно подготовиться к экзамену по двум вариантам нельзя, так как на экзамен выносятся десятки типов каждого задания, а здесь детально изучается решение лишь 1-2 типов каждого задания.
Материалы раздаются в папке. После скачивания Вы получите папку Demo_EGE_2014, в которой будет 3 каталога и три файла. Запускать нужно файл Start.exe:
В папке "Lessons" 19 видео файлов (по 2 задания в каждом ролике).
Общая продолжительность видео: 3 часа 31 минута.

Постеры

Соцсети

 

Статистика

Автор: Stepan
Добавлен: 07 апр 2018, 23:22
Размер: 1.87 ГБ
Размер: 2 007 470 326 байт
Сидеров: 0
Личеров: 0
Скачали: 0
Здоровье: 0%
Статус:
Скорость скачивания: 0 байт/сек
Скорость раздачи: 0 байт/сек
Последний сидер: Нет
Последний личер: Нет
Приватный: Нет (DHT включён)
Школьникам, студентам и педагогам Скачать торрент
Скачать торрент
[ Размер 23.67 КБ / Просмотров 0 ]

Поделиться



  • Похожие торренты
    Ответы
    Просмотры
    Последнее сообщение

Вернуться в Школьникам, студентам и педагогам