Сообщение

[Udemy.com / Brilley Batley] Освоение основ частных производных / Master the Fundamentals of Partial Derivates [2016, математика, WebRip, ENG] (Видеоурок)

Сообщение Stepan » 07 апр 2018, 23:26

Освоение основ частных производных / Master the Fundamentals of Partial Derivates
Страна: США
Тематика: математика
Тип раздаваемого материала: Видеоурок
Продолжительность: 0:37:36
Год выпуска: 2016
Язык: Английский
Перевод: Отсутствует
Описание: This course includes video lectures on partial derivatives in detail. The feel of class room is created using chalk and black board. The basics of partial derivatives is explained in simple easy to understand manner in this course. After completing the course you will able to find first, second and third order partial derivatives of any given function.
Этот курс включает в себя видео-лекции об уравнениях с производными в деталях. Ощущение присутствия на уроке создается благодаря использованию мела и доски. Основы частных производных объясняются в доступном для понимания виде. После окончания курса вы будете в состоянии найти первого, второго и третьего порядка частных производных функции.
Доп. информация: курс на юдеми: udemy.com/master-the-fundamentals-of-partial-derivates
Качество: WEBRip
Формат: MP4
Видео кодек: H.264
Аудио кодек: AAC
Видео: AVC, 1360x648, 335kbps, 30fps
Аудио: AAC, 117kbps, 44.1kHz, stereo
General
Complete name : 1_-_Introduction_to_Partial_Derivatives\1_-_Introduction.mp4
Format : MPEG-4
Format profile : Base Media
Codec ID : isom (isom/avc1/mp42)
File size : 18.2 MiB
Duration : 5mn 40s
Overall bit rate mode : Variable
Overall bit rate : 447 Kbps
Encoded date : UTC 2015-10-27 19:39:22
Tagged date : UTC 2015-10-27 19:39:22
Video
ID : 1
Format : AVC
Format/Info : Advanced Video Codec
Format profile : Baseline@L3.1
Format settings, CABAC : No
Format settings, ReFrames : 3 frames
Format settings, GOP : M=1, N=50
Codec ID : avc1
Codec ID/Info : Advanced Video Coding
Duration : 5mn 40s
Bit rate : 335 Kbps
Maximum bit rate : 604 Kbps
Width : 1 360 pixels
Height : 648 pixels
Display aspect ratio : 2.099
Frame rate mode : Constant
Frame rate : 30.000 fps
Color space : YUV
Chroma subsampling : 4:2:0
Bit depth : 8 bits
Scan type : Progressive
Bits/(Pixel*Frame) : 0.013
Stream size : 13.6 MiB (75%)
Writing library : Zencoder Video Encoding System
Encoded date : UTC 2015-10-27 19:38:37
Tagged date : UTC 2015-10-27 19:39:22
Audio
ID : 2
Format : AAC
Format/Info : Advanced Audio Codec
Format profile : LC
Codec ID : 40
Duration : 5mn 40s
Bit rate mode : Variable
Bit rate : 110 Kbps
Maximum bit rate : 117 Kbps
Channel(s) : 2 channels
Channel positions : Front: L R
Sampling rate : 44.1 KHz
Frame rate : 43.066 fps (1024 spf)
Compression mode : Lossy
Stream size : 4.48 MiB (25%)
Encoded date : UTC 2015-10-27 19:38:37
Tagged date : UTC 2015-10-27 19:39:22
General
Complete name : 2_-_First_Order_Partial_Derivatives_with_Two_Variables\2_-_Notations.mp4
Format : MPEG-4
Format profile : Base Media
Codec ID : isom (isom/avc1/mp42)
File size : 4.84 MiB
Duration : 1mn 53s
Overall bit rate mode : Variable
Overall bit rate : 357 Kbps
Encoded date : UTC 2015-10-26 08:28:20
Tagged date : UTC 2015-10-26 08:28:20
Video
ID : 1
Format : AVC
Format/Info : Advanced Video Codec
Format profile : Baseline@L3.1
Format settings, CABAC : No
Format settings, ReFrames : 3 frames
Format settings, GOP : M=1, N=50
Codec ID : avc1
Codec ID/Info : Advanced Video Coding
Duration : 1mn 53s
Bit rate : 293 Kbps
Maximum bit rate : 507 Kbps
Width : 1 360 pixels
Height : 648 pixels
Display aspect ratio : 2.099
Frame rate mode : Constant
Frame rate : 30.000 fps
Color space : YUV
Chroma subsampling : 4:2:0
Bit depth : 8 bits
Scan type : Progressive
Bits/(Pixel*Frame) : 0.011
Stream size : 3.97 MiB (82%)
Writing library : Zencoder Video Encoding System
Encoded date : UTC 2015-10-26 08:28:14
Tagged date : UTC 2015-10-26 08:28:20
Audio
ID : 2
Format : AAC
Format/Info : Advanced Audio Codec
Format profile : LC
Codec ID : 40
Duration : 1mn 53s
Bit rate mode : Variable
Bit rate : 61.7 Kbps
Maximum bit rate : 67.7 Kbps
Channel(s) : 2 channels
Channel positions : Front: L R
Sampling rate : 44.1 KHz
Frame rate : 43.066 fps (1024 spf)
Compression mode : Lossy
Stream size : 857 KiB (17%)
Encoded date : UTC 2015-10-26 08:28:14
Tagged date : UTC 2015-10-26 08:28:20
General
Complete name : 2_-_First_Order_Partial_Derivatives_with_Two_Variables\3_-_Sample_Question_1.mp4
Format : MPEG-4
Format profile : Base Media
Codec ID : isom (isom/avc1/mp42)
File size : 3.41 MiB
Duration : 1mn 15s
Overall bit rate mode : Variable
Overall bit rate : 376 Kbps
Encoded date : UTC 2015-10-26 08:28:30
Tagged date : UTC 2015-10-26 08:28:30
Video
ID : 1
Format : AVC
Format/Info : Advanced Video Codec
Format profile : Baseline@L3.1
Format settings, CABAC : No
Format settings, ReFrames : 3 frames
Format settings, GOP : M=1, N=50
Codec ID : avc1
Codec ID/Info : Advanced Video Coding
Duration : 1mn 15s
Bit rate : 312 Kbps
Maximum bit rate : 515 Kbps
Width : 1 360 pixels
Height : 648 pixels
Display aspect ratio : 2.099
Frame rate mode : Constant
Frame rate : 30.000 fps
Color space : YUV
Chroma subsampling : 4:2:0
Bit depth : 8 bits
Scan type : Progressive
Bits/(Pixel*Frame) : 0.012
Stream size : 2.82 MiB (83%)
Writing library : Zencoder Video Encoding System
Encoded date : UTC 2015-10-26 08:28:25
Tagged date : UTC 2015-10-26 08:28:30
Audio
ID : 2
Format : AAC
Format/Info : Advanced Audio Codec
Format profile : LC
Codec ID : 40
Duration : 1mn 15s
Bit rate mode : Variable
Bit rate : 62.2 Kbps
Maximum bit rate : 65.7 Kbps
Channel(s) : 2 channels
Channel positions : Front: L R
Sampling rate : 44.1 KHz
Frame rate : 43.066 fps (1024 spf)
Compression mode : Lossy
Stream size : 577 KiB (17%)
Encoded date : UTC 2015-10-26 08:28:25
Tagged date : UTC 2015-10-26 08:28:30
General
Complete name : 2_-_First_Order_Partial_Derivatives_with_Two_Variables\4_-_Sample_Question_2_and_3.mp4
Format : MPEG-4
Format profile : Base Media
Codec ID : isom (isom/avc1/mp42)
File size : 8.75 MiB
Duration : 3mn 16s
Overall bit rate mode : Variable
Overall bit rate : 373 Kbps
Encoded date : UTC 2015-10-26 08:33:42
Tagged date : UTC 2015-10-26 08:33:42
Video
ID : 1
Format : AVC
Format/Info : Advanced Video Codec
Format profile : Baseline@L3.1
Format settings, CABAC : No
Format settings, ReFrames : 3 frames
Format settings, GOP : M=1, N=50
Codec ID : avc1
Codec ID/Info : Advanced Video Coding
Duration : 3mn 16s
Bit rate : 309 Kbps
Maximum bit rate : 537 Kbps
Width : 1 360 pixels
Height : 648 pixels
Display aspect ratio : 2.099
Frame rate mode : Constant
Frame rate : 30.000 fps
Color space : YUV
Chroma subsampling : 4:2:0
Bit depth : 8 bits
Scan type : Progressive
Bits/(Pixel*Frame) : 0.012
Stream size : 7.24 MiB (83%)
Writing library : Zencoder Video Encoding System
Encoded date : UTC 2015-10-26 08:33:27
Tagged date : UTC 2015-10-26 08:33:42
Audio
ID : 2
Format : AAC
Format/Info : Advanced Audio Codec
Format profile : LC
Codec ID : 40
Duration : 3mn 16s
Bit rate mode : Variable
Bit rate : 61.9 Kbps
Maximum bit rate : 66.4 Kbps
Channel(s) : 2 channels
Channel positions : Front: L R
Sampling rate : 44.1 KHz
Frame rate : 43.066 fps (1024 spf)
Compression mode : Lossy
Stream size : 1.45 MiB (17%)
Encoded date : UTC 2015-10-26 08:33:27
Tagged date : UTC 2015-10-26 08:33:42
General
Complete name : 3_-_First_Order_Partial_Derivatives_with_Three_Variables\5_-_Notations.mp4
Format : MPEG-4
Format profile : Base Media
Codec ID : isom (isom/avc1/mp42)
File size : 3.77 MiB
Duration : 1mn 22s
Overall bit rate mode : Variable
Overall bit rate : 383 Kbps
Encoded date : UTC 2015-10-26 08:29:14
Tagged date : UTC 2015-10-26 08:29:14
Video
ID : 1
Format : AVC
Format/Info : Advanced Video Codec
Format profile : Baseline@L3.1
Format settings, CABAC : No
Format settings, ReFrames : 3 frames
Format settings, GOP : M=1, N=50
Codec ID : avc1
Codec ID/Info : Advanced Video Coding
Duration : 1mn 22s
Bit rate : 319 Kbps
Maximum bit rate : 555 Kbps
Width : 1 360 pixels
Height : 648 pixels
Display aspect ratio : 2.099
Frame rate mode : Constant
Frame rate : 30.000 fps
Color space : YUV
Chroma subsampling : 4:2:0
Bit depth : 8 bits
Scan type : Progressive
Bits/(Pixel*Frame) : 0.012
Stream size : 3.13 MiB (83%)
Writing library : Zencoder Video Encoding System
Encoded date : UTC 2015-10-26 08:29:07
Tagged date : UTC 2015-10-26 08:29:14
Audio
ID : 2
Format : AAC
Format/Info : Advanced Audio Codec
Format profile : LC
Codec ID : 40
Duration : 1mn 22s
Bit rate mode : Variable
Bit rate : 62.2 Kbps
Maximum bit rate : 67.6 Kbps
Channel(s) : 2 channels
Channel positions : Front: L R
Sampling rate : 44.1 KHz
Frame rate : 43.066 fps (1024 spf)
Compression mode : Lossy
Stream size : 627 KiB (16%)
Encoded date : UTC 2015-10-26 08:29:07
Tagged date : UTC 2015-10-26 08:29:14
General
Complete name : 3_-_First_Order_Partial_Derivatives_with_Three_Variables\6_-_Sample_Question.mp4
Format : MPEG-4
Format profile : Base Media
Codec ID : isom (isom/avc1/mp42)
File size : 4.65 MiB
Duration : 1mn 39s
Overall bit rate mode : Variable
Overall bit rate : 391 Kbps
Encoded date : UTC 2015-10-26 08:33:31
Tagged date : UTC 2015-10-26 08:33:31
Video
ID : 1
Format : AVC
Format/Info : Advanced Video Codec
Format profile : Baseline@L3.1
Format settings, CABAC : No
Format settings, ReFrames : 3 frames
Format settings, GOP : M=1, N=50
Codec ID : avc1
Codec ID/Info : Advanced Video Coding
Duration : 1mn 39s
Bit rate : 327 Kbps
Maximum bit rate : 558 Kbps
Width : 1 360 pixels
Height : 648 pixels
Display aspect ratio : 2.099
Frame rate mode : Constant
Frame rate : 30.000 fps
Color space : YUV
Chroma subsampling : 4:2:0
Bit depth : 8 bits
Scan type : Progressive
Bits/(Pixel*Frame) : 0.012
Stream size : 3.88 MiB (83%)
Writing library : Zencoder Video Encoding System
Encoded date : UTC 2015-10-26 08:33:23
Tagged date : UTC 2015-10-26 08:33:31
Audio
ID : 2
Format : AAC
Format/Info : Advanced Audio Codec
Format profile : LC
Codec ID : 40
Duration : 1mn 39s
Bit rate mode : Variable
Bit rate : 62.0 Kbps
Maximum bit rate : 66.8 Kbps
Channel(s) : 2 channels
Channel positions : Front: L R
Sampling rate : 44.1 KHz
Frame rate : 43.066 fps (1024 spf)
Compression mode : Lossy
Stream size : 755 KiB (16%)
Encoded date : UTC 2015-10-26 08:33:23
Tagged date : UTC 2015-10-26 08:33:31
General
Complete name : 4_-_Second_Order_Partial_Derivatives\7_-_Notations.mp4
Format : MPEG-4
Format profile : Base Media
Codec ID : isom (isom/avc1/mp42)
File size : 10.6 MiB
Duration : 3mn 51s
Overall bit rate mode : Variable
Overall bit rate : 382 Kbps
Encoded date : UTC 2015-10-26 08:45:07
Tagged date : UTC 2015-10-26 08:45:07
Video
ID : 1
Format : AVC
Format/Info : Advanced Video Codec
Format profile : Baseline@L3.1
Format settings, CABAC : No
Format settings, ReFrames : 3 frames
Format settings, GOP : M=1, N=50
Codec ID : avc1
Codec ID/Info : Advanced Video Coding
Duration : 3mn 51s
Bit rate : 316 Kbps
Maximum bit rate : 575 Kbps
Width : 1 360 pixels
Height : 648 pixels
Display aspect ratio : 2.099
Frame rate mode : Constant
Frame rate : 30.000 fps
Color space : YUV
Chroma subsampling : 4:2:0
Bit depth : 8 bits
Scan type : Progressive
Bits/(Pixel*Frame) : 0.012
Stream size : 8.75 MiB (83%)
Writing library : Zencoder Video Encoding System
Encoded date : UTC 2015-10-26 08:44:44
Tagged date : UTC 2015-10-26 08:45:07
Audio
ID : 2
Format : AAC
Format/Info : Advanced Audio Codec
Format profile : LC
Codec ID : 40
Duration : 3mn 51s
Bit rate mode : Variable
Bit rate : 63.4 Kbps
Maximum bit rate : 69.6 Kbps
Channel(s) : 2 channels
Channel positions : Front: L R
Sampling rate : 44.1 KHz
Frame rate : 43.066 fps (1024 spf)
Compression mode : Lossy
Stream size : 1.75 MiB (17%)
Encoded date : UTC 2015-10-26 08:44:44
Tagged date : UTC 2015-10-26 08:45:07
General
Complete name : 4_-_Second_Order_Partial_Derivatives\8_-_Sample_Question_1.mp4
Format : MPEG-4
Format profile : Base Media
Codec ID : isom (isom/avc1/mp42)
File size : 12.6 MiB
Duration : 4mn 13s
Overall bit rate mode : Variable
Overall bit rate : 416 Kbps
Encoded date : UTC 2015-10-26 08:45:29
Tagged date : UTC 2015-10-26 08:45:29
Video
ID : 1
Format : AVC
Format/Info : Advanced Video Codec
Format profile : Baseline@L3.1
Format settings, CABAC : No
Format settings, ReFrames : 3 frames
Format settings, GOP : M=1, N=50
Codec ID : avc1
Codec ID/Info : Advanced Video Coding
Duration : 4mn 13s
Bit rate : 350 Kbps
Maximum bit rate : 626 Kbps
Width : 1 360 pixels
Height : 648 pixels
Display aspect ratio : 2.099
Frame rate mode : Constant
Frame rate : 30.000 fps
Color space : YUV
Chroma subsampling : 4:2:0
Bit depth : 8 bits
Scan type : Progressive
Bits/(Pixel*Frame) : 0.013
Stream size : 10.6 MiB (84%)
Writing library : Zencoder Video Encoding System
Encoded date : UTC 2015-10-26 08:45:15
Tagged date : UTC 2015-10-26 08:45:29
Audio
ID : 2
Format : AAC
Format/Info : Advanced Audio Codec
Format profile : LC
Codec ID : 40
Duration : 4mn 13s
Bit rate mode : Variable
Bit rate : 62.9 Kbps
Maximum bit rate : 67.9 Kbps
Channel(s) : 2 channels
Channel positions : Front: L R
Sampling rate : 44.1 KHz
Frame rate : 43.066 fps (1024 spf)
Compression mode : Lossy
Stream size : 1.90 MiB (15%)
Encoded date : UTC 2015-10-26 08:45:15
Tagged date : UTC 2015-10-26 08:45:29
General
Complete name : 4_-_Second_Order_Partial_Derivatives\9_-_Sample_Question_2.mp4
Format : MPEG-4
Format profile : Base Media
Codec ID : isom (isom/avc1/mp42)
File size : 19.2 MiB
Duration : 6mn 17s
Overall bit rate mode : Variable
Overall bit rate : 427 Kbps
Encoded date : UTC 2015-10-26 08:37:07
Tagged date : UTC 2015-10-26 08:37:07
Video
ID : 1
Format : AVC
Format/Info : Advanced Video Codec
Format profile : Baseline@L3.1
Format settings, CABAC : No
Format settings, ReFrames : 3 frames
Format settings, GOP : M=1, N=50
Codec ID : avc1
Codec ID/Info : Advanced Video Coding
Duration : 6mn 17s
Bit rate : 363 Kbps
Maximum bit rate : 679 Kbps
Width : 1 360 pixels
Height : 648 pixels
Display aspect ratio : 2.099
Frame rate mode : Constant
Frame rate : 30.000 fps
Color space : YUV
Chroma subsampling : 4:2:0
Bit depth : 8 bits
Scan type : Progressive
Bits/(Pixel*Frame) : 0.014
Stream size : 16.4 MiB (85%)
Writing library : Zencoder Video Encoding System
Encoded date : UTC 2015-10-26 08:36:40
Tagged date : UTC 2015-10-26 08:37:07
Audio
ID : 2
Format : AAC
Format/Info : Advanced Audio Codec
Format profile : LC
Codec ID : 40
Duration : 6mn 17s
Bit rate mode : Variable
Bit rate : 60.8 Kbps
Maximum bit rate : 68.3 Kbps
Channel(s) : 2 channels
Channel positions : Front: L R
Sampling rate : 44.1 KHz
Frame rate : 43.066 fps (1024 spf)
Compression mode : Lossy
Stream size : 2.74 MiB (14%)
Encoded date : UTC 2015-10-26 08:36:40
Tagged date : UTC 2015-10-26 08:37:07
General
Complete name : 4_-_Second_Order_Partial_Derivatives\10_-_Clairaut_s_Theorem.mp4
Format : MPEG-4
Format profile : Base Media
Codec ID : isom (isom/avc1/mp42)
File size : 5.73 MiB
Duration : 1mn 52s
Overall bit rate mode : Variable
Overall bit rate : 428 Kbps
Encoded date : UTC 2015-10-26 08:33:42
Tagged date : UTC 2015-10-26 08:33:42
Video
ID : 1
Format : AVC
Format/Info : Advanced Video Codec
Format profile : Baseline@L3.1
Format settings, CABAC : No
Format settings, ReFrames : 3 frames
Format settings, GOP : M=1, N=50
Codec ID : avc1
Codec ID/Info : Advanced Video Coding
Duration : 1mn 52s
Bit rate : 310 Kbps
Maximum bit rate : 527 Kbps
Width : 1 360 pixels
Height : 648 pixels
Display aspect ratio : 2.099
Frame rate mode : Constant
Frame rate : 30.000 fps
Color space : YUV
Chroma subsampling : 4:2:0
Bit depth : 8 bits
Scan type : Progressive
Bits/(Pixel*Frame) : 0.012
Stream size : 4.15 MiB (72%)
Writing library : Zencoder Video Encoding System
Encoded date : UTC 2015-10-26 08:33:32
Tagged date : UTC 2015-10-26 08:33:42
Audio
ID : 2
Format : AAC
Format/Info : Advanced Audio Codec
Format profile : LC
Codec ID : 40
Duration : 1mn 52s
Bit rate mode : Variable
Bit rate : 115 Kbps
Maximum bit rate : 121 Kbps
Channel(s) : 2 channels
Channel positions : Front: L R
Sampling rate : 44.1 KHz
Frame rate : 43.066 fps (1024 spf)
Compression mode : Lossy
Stream size : 1.54 MiB (27%)
Encoded date : UTC 2015-10-26 08:33:32
Tagged date : UTC 2015-10-26 08:33:42
General
Complete name : 5_-_Third_Order_Partial_Derivatives\11_-_Notations.mp4
Format : MPEG-4
Format profile : Base Media
Codec ID : isom (isom/avc1/mp42)
File size : 7.58 MiB
Duration : 2mn 36s
Overall bit rate mode : Variable
Overall bit rate : 407 Kbps
Encoded date : UTC 2015-10-27 19:44:18
Tagged date : UTC 2015-10-27 19:44:18
Video
ID : 1
Format : AVC
Format/Info : Advanced Video Codec
Format profile : Baseline@L3.1
Format settings, CABAC : No
Format settings, ReFrames : 3 frames
Format settings, GOP : M=1, N=50
Codec ID : avc1
Codec ID/Info : Advanced Video Coding
Duration : 2mn 36s
Bit rate : 315 Kbps
Maximum bit rate : 553 Kbps
Width : 1 360 pixels
Height : 648 pixels
Display aspect ratio : 2.099
Frame rate mode : Constant
Frame rate : 30.000 fps
Color space : YUV
Chroma subsampling : 4:2:0
Bit depth : 8 bits
Scan type : Progressive
Bits/(Pixel*Frame) : 0.012
Stream size : 5.87 MiB (77%)
Writing library : Zencoder Video Encoding System
Encoded date : UTC 2015-10-27 19:44:08
Tagged date : UTC 2015-10-27 19:44:18
Audio
ID : 2
Format : AAC
Format/Info : Advanced Audio Codec
Format profile : LC
Codec ID : 40
Duration : 2mn 36s
Bit rate mode : Variable
Bit rate : 89.3 Kbps
Maximum bit rate : 102 Kbps
Channel(s) : 2 channels
Channel positions : Front: L R
Sampling rate : 44.1 KHz
Frame rate : 43.066 fps (1024 spf)
Compression mode : Lossy
Stream size : 1.67 MiB (22%)
Encoded date : UTC 2015-10-27 19:44:08
Tagged date : UTC 2015-10-27 19:44:18
General
Complete name : 5_-_Third_Order_Partial_Derivatives\12_-_Sample_Question_1.mp4
Format : MPEG-4
Format profile : Base Media
Codec ID : isom (isom/avc1/mp42)
File size : 11.1 MiB
Duration : 3mn 35s
Overall bit rate mode : Variable
Overall bit rate : 434 Kbps
Encoded date : UTC 2015-10-27 19:45:49
Tagged date : UTC 2015-10-27 19:45:49
Video
ID : 1
Format : AVC
Format/Info : Advanced Video Codec
Format profile : Baseline@L3.1
Format settings, CABAC : No
Format settings, ReFrames : 3 frames
Format settings, GOP : M=1, N=50
Codec ID : avc1
Codec ID/Info : Advanced Video Coding
Duration : 3mn 34s
Bit rate : 321 Kbps
Maximum bit rate : 562 Kbps
Width : 1 360 pixels
Height : 648 pixels
Display aspect ratio : 2.099
Frame rate mode : Constant
Frame rate : 30.000 fps
Color space : YUV
Chroma subsampling : 4:2:0
Bit depth : 8 bits
Scan type : Progressive
Bits/(Pixel*Frame) : 0.012
Stream size : 8.21 MiB (74%)
Writing library : Zencoder Video Encoding System
Encoded date : UTC 2015-10-27 19:45:27
Tagged date : UTC 2015-10-27 19:45:49
Audio
ID : 2
Format : AAC
Format/Info : Advanced Audio Codec
Format profile : LC
Codec ID : 40
Duration : 3mn 35s
Bit rate mode : Variable
Bit rate : 111 Kbps
Maximum bit rate : 116 Kbps
Channel(s) : 2 channels
Channel positions : Front: L R
Sampling rate : 44.1 KHz
Frame rate : 43.066 fps (1024 spf)
Compression mode : Lossy
Stream size : 2.85 MiB (26%)
Encoded date : UTC 2015-10-27 19:45:27
Tagged date : UTC 2015-10-27 19:45:49

Постеры

Соцсети

 

Статистика

Автор: Stepan
Добавлен: 07 апр 2018, 23:26
Размер: 110.4 МБ
Размер: 115 767 158 байт
Сидеров: 0
Личеров: 0
Скачали: 0
Здоровье: 0%
Статус:
Скорость скачивания: 0 байт/сек
Скорость раздачи: 0 байт/сек
Последний сидер: Нет
Последний личер: Нет
Приватный: Нет (DHT включён)
Школьникам, студентам и педагогам Скачать торрент
Скачать торрент
[ Размер 10.26 КБ / Просмотров 0 ]

Поделиться



  • Похожие торренты
    Ответы
    Просмотры
    Последнее сообщение

Вернуться в Школьникам, студентам и педагогам