Сообщение

Универсариум. Графы и комбинаторика [2014, Математика, Webrip, RUS] (видеокурс, 7 модулей из 8)

Сообщение Stepan » 07 апр 2018, 23:26

Универсариум. Графы и комбинаторика: от жемчужин теории к современным приложениям [2014, Математика, Webrip, RUS] (видеокурс, 7 модулей из 8)
Страна: Россия
Издатель: http://universarium.org/
Тематика: Математика
Продолжительность: 09:39:29 (50 отдельных роликов)
Год выпуска: 2014
Язык: Русский
Описание: Видеокурс по графам и комбинаторике
О курсе и авторах
Теория графов - это наука, богатая исключительно красивыми задачами, постановки которых доступны пониманию школьника. Однако многие из этих задач крайне трудны и даже не решены до сих пор. В то же время теория графов - это отнюдь не только собрание ярких вопросов и фактов - "жемчужин", - это мощная современная ветвь математики со своими нетривиальными методами и, конечно, многочисленными приложениями. Мы построим курс следующим образом. Сперва введем основные объекты теории графов и расскажем о нескольких ее жемчужинах. Затем дадим представление о роли вероятностного метода в теории графов. И, наконец, расскажем о моделях случайных графов, которые адекватно описывают те или иные аспекты реальности. В частности, мы расскажем о моделях Интернета и других "реальных" сетей.
Модули и структура курса
1. Основные понятия и классические задачи теории графов - 7 лекций
2. Графы. Первые задачи - 8 лекций
3. Вероятность и графы - 9 лекций
4. Треугольники в случайном графе - 6 лекций
5. Числа Рамсея и связность графа - 7 лекций
6. Хроматическое число - 6 лекций
7. Интернет-графы - 6 лекций
8. Выходим на приложения - 3 лекции Данный модуль пока отсутствует. Он будет добавлен, как только состоится перезапуск курса на http://universarium.org/
Цель изучения курса
Представленный курс позволит не только осовить основные понятия и определения теории графов, но и заложит основы её практического использования. Слушатели инженерных специализаций, получат реальный инструмент повышения своей профессиональной результативности, но в тоже время и поклонники фундаментальных наук смогут насладиться исключительным обаянием теории графов и её связью со смежными научными направлениями.
Необходимый уровень подготовки
Необходимо знать основы комбинаторики, т.е. числа сочетаний и бином Ньютона, а также полезно иметь представление о том, что такое квантор ("для любого", "существует"), что бывают взаимно однозначные соответствия между множествами.
Результаты изучения курса
Слушатель познакомится с некоторыми объектами теории графов, с несколькими наиболее яркими задачами теории, а также узнает о приложениях теории в современных информационных технологиях и не только в них.
Качество: WEBRip
Формат: .mp4, .webm (одни лекции в .webm, другие - в .mp4)
.webm:
Видео: V_VP8, 1280x720, 586 Кбит/сек, 23.976 кадра/сек
Аудио: A_VORBIS, 48,0 КГц, 80,0 Кбит/сек, 2 канала
.mp4:
Видео: avc1, 1280x720, 600 Кбит/сек, 23,976 кадра/сек
Аудио: 40, 48,0 КГц, 80,0 Кбит/сек, 2 канала
Общее
Формат : WebM
Версия формата : Version 2
Размер файла : 42,2 Мбайт
Продолжительность : 8 м. 23 с.
Режим общего битрейта : Переменный
Общий поток : 702 Кбит/сек
Программа кодирования : Lavf55.12.100
Библиотека кодирования : Lavf55.12.100
Видео
Идентификатор : 2
Формат : VP8
Идентификатор кодека : V_VP8
Продолжительность : 8 м. 23 с.
Битрейт : 586 Кбит/сек
Ширина : 1280 пикселей
Высота : 720 пикселей
Соотношение сторон : 16:9
Режим частоты кадров : Постоянный
Частота кадров : 23,976 кадра/сек
Метод сжатия : С потерями
Бит/(Пиксели*Кадры) : 0.026
Размер потока : 35,2 Мбайт (83%)
Язык : English
Default : Да
Forced : Нет
Аудио
Идентификатор : 1
Формат : Vorbis
Параметр Floor формата : 1
Идентификатор кодека : A_VORBIS
Продолжительность : 8 м. 23 с.
Вид битрейта : Переменный
Битрейт : 80,0 Кбит/сек
Максимальный битрейт : 1000 Кбит/сек
Каналы : 2 канала
Частота : 48,0 КГц
Метод сжатия : С потерями
Задержка видео : -45 мс.
Размер потока : 4,80 Мбайт (11%)
Библиотека кодирования : libVorbis (Omnipresent) (20120203 (Omnipresent))
Язык : English
Default : Да
Forced : Нет
Программа кодирования : Lavc55.18.102
Общее
Формат : MPEG-4
Профиль формата : Base Media
Идентификатор кодека : isom
Размер файла : 47,4 Мбайт
Продолжительность : 9 м. 26 с.
Режим общего битрейта : Переменный
Общий поток : 701 Кбит/сек
Программа кодирования : Lavf55.12.100
Видео
Идентификатор : 2
Формат : AVC
Формат/Информация : Advanced Video Codec
Профиль формата : Baseline@L3.1
Параметр CABAC формата : Нет
Параметр ReFrames формата : 1 кадр
Идентификатор кодека : avc1
Идентификатор кодека/Информация : Advanced Video Coding
Продолжительность : 9 м. 26 с.
Битрейт : 600 Кбит/сек
Ширина : 1280 пикселей
Высота : 720 пикселей
Соотношение сторон : 16:9
Режим частоты кадров : Постоянный
Частота кадров : 23,976 кадра/сек
Цветовое пространство : YUV
Субдискретизация насыщенности : 4:2:0
Битовая глубина : 8 бит
Тип развёртки : Прогрессивная
Бит/(Пиксели*Кадры) : 0.027
Размер потока : 41,7 Мбайт (88%)
Библиотека кодирования : x264 core 130
Настройки программы : cabac=0 / ref=1 / deblock=1:0:0 / analyse=0x1:0x111 / me=hex / subme=10 / psy=1 / psy_rd=1.00:0.00 / mixed_ref=0 / me_range=16 / chroma_me=1 / trellis=2 / 8x8dct=0 / cqm=0 / deadzone=21,11 / fast_pskip=1 / chroma_qp_offset=-2 / threads=48 / lookahead_threads=4 / sliced_threads=0 / nr=0 / decimate=1 / interlaced=0 / bluray_compat=0 / constrained_intra=0 / bframes=0 / weightp=0 / keyint=90 / keyint_min=9 / scenecut=40 / intra_refresh=0 / rc_lookahead=40 / rc=abr / mbtree=1 / bitrate=600 / ratetol=1.0 / qcomp=0.60 / qpmin=0 / qpmax=69 / qpstep=4 / vbv_maxrate=1000 / vbv_bufsize=10000 / nal_hrd=none / ip_ratio=1.40 / aq=1:1.00
Аудио
Идентификатор : 1
Формат : AAC
Формат/Информация : Advanced Audio Codec
Профиль формата : LC
Идентификатор кодека : 40
Продолжительность : 9 м. 26 с.
Вид битрейта : Переменный
Битрейт : 80,0 Кбит/сек
Максимальный битрейт : 1000 Кбит/сек
Каналы : 2 канала
Расположение каналов : Front: L R
Частота : 48,0 КГц
Метод сжатия : С потерями
Размер потока : 5,40 Мбайт (11%)
Язык : English
Сайт universarium.org не позволяет (стандартными средствами) скачивать лекции. А после завершения курсов - даже просматривать их. Знания должны быть свободными!

Постеры

Соцсети

 

Статистика

Автор: Stepan
Добавлен: 07 апр 2018, 23:26
Размер: 2.84 ГБ
Размер: 3 052 922 265 байт
Сидеров: 0
Личеров: 0
Скачали: 0
Здоровье: 0%
Статус:
Скорость скачивания: 0 байт/сек
Скорость раздачи: 0 байт/сек
Последний сидер: Нет
Последний личер: Нет
Приватный: Нет (DHT включён)
Школьникам, студентам и педагогам Скачать торрент
Скачать торрент
[ Размер 32.18 КБ / Просмотров 1 ]

Поделиться



  • Похожие торренты
    Ответы
    Просмотры
    Последнее сообщение

Вернуться в Школьникам, студентам и педагогам