Сообщение

Уроки географии / Уроки географии Моя планета [2013, Познавательное, SATRip, rus]

Сообщение Stepan » 07 апр 2018, 23:30

Страна: Россия
Тематика: Познавательное
Тип раздаваемого материала: Видеоурок
Продолжительность: ~ 00:27:00
Год выпуска: 2013
Язык: Русский
Перевод: Не требуется
Описание: Увлекательные уроки географии которые проходят на необьятных просторах нашей великой родины
Каждая серия - это занимательный рассказ о самых удивительных уголках нашей планеты.
Качество: SATRip
Формат: AVI
Видео: 720x576, 3338 кб/сек , 25к/сек, PAL, AVC ( Advanced Video Codec) ,Baseline@L1.3
Аудио: 320 кб/сек стерео 44 kHz ,MPEG Audio Version 1 Layer 3, LAME3.97
Видеокодек: AVC
Аудиокодек: MP3
Общее
Полное имя : D:\Downloads\Уроки географии\Астрахань.avi
Формат : AVI
Формат/Информация : Audio Video Interleave
Размер файла : 665 Мбайт
Продолжительность : 27 м.
Общий поток : 3401 Кбит/сек
Программа кодирования : Lavf51.12.1
Видео
Идентификатор : 0
Формат : AVC
Формат/Информация : Advanced Video Codec
Профиль формата : Baseline@L1.3
Параметр CABAC формата : Нет
Параметр ReFrames формата : 1 кадр
Параметр GOP формата : M=1, N=12
Идентификатор кодека : H264
Продолжительность : 27 м.
Битрейт : 3068 Кбит/сек
Ширина : 720 пикселей
Высота : 576 пикселей
Соотношение сторон : 5:4
Частота кадров : 25,000 кадров/сек
Стандарт вещания : PAL
Цветовое пространство : YUV
Субдискретизация насыщенности : 4:2:0
Битовая глубина : 8 бит
Тип развёртки : Прогрессивная
Бит/(Пиксели*Кадры) : 0.296
Размер потока : 600 Мбайт (90%)
Аудио
Идентификатор : 1
Формат : MPEG Audio
Версия формата : Version 1
Профиль формата : Layer 3
Режим : Joint stereo
Расширение режима : MS Stereo
Идентификатор кодека : 55
Идентификатор кодека/Подсказка : MP3
Продолжительность : 27 м.
Вид битрейта : Постоянный
Битрейт : 320 Кбит/сек
Каналы : 2 канала
Частота : 44,1 КГц
Метод сжатия : С потерями
Размер потока : 62,5 Мбайт (9%)
Выравнивание : Соединение по промежуткам
Продолжительность промежутка : 26 мс. (0,65 видеокадр)
Библиотека кодирования : LAME3.97ЄЄЄЄЄЄЄЄЄЄЄЄ


01- Астрахань 00:27:21
02- Карелия 00:27:35
03- Соловки 00:27:16
04- Сочи 00:27:29
05- Байкал 00:27:32
06- Хабаровск 00:27:04
07- Пятигорск 00:27:23
08- Сахалин 00:26:44
09- Эльбрус 00:26:08
Уроки географии / Уроки географии Моя планета

Постеры

Соцсети

 

Статистика

Автор: Stepan
Добавлен: 07 апр 2018, 23:30
Размер: 4.71 ГБ
Размер: 5 058 971 560 байт
Сидеров: 0
Личеров: 0
Скачали: 0
Здоровье: 0%
Статус:
Скорость скачивания: 0 байт/сек
Скорость раздачи: 0 байт/сек
Последний сидер: Нет
Последний личер: Нет
Приватный: Нет (DHT включён)
Школьникам, студентам и педагогам Скачать торрент
Скачать торрент
[ Размер 13.06 КБ / Просмотров 0 ]

Поделиться



  • Похожие торренты
    Ответы
    Просмотры
    Последнее сообщение

Вернуться в Школьникам, студентам и педагогам