Сообщение

Школьный Физический Эксперимент: Электромагнитные волны [2003, Учебно-методический материал, DVD5, RUS]

Сообщение Stepan » 07 апр 2018, 23:31

Школьный Физический Эксперимент:
Электромагнитные волны
Год выпуска: 2003
Страна: Россия
Жанр: Учебно-методический материал
Продолжительность: 030
Язык: русский
Описание: Успешно применяется на уроках физики для демонстрации следующих опытов: излучение и прием электромагнитных волн. Модель электромагнитной волны. Измерение длины электромагнитной волны. Поглощение электромагнитных волн. Отражение электромагнитных волн. Принцип действия радиолокатора. Преломление электромагнитной волны в треугольной призме. Преломление электромагнитной волны в линзе. Интерференция электромагнитных волн. Дифракция электромагнитных волн. Поперечность электромагнитных волн. Модель радиоприемника
Качество: DVD5
Формат: DVD Video
Видео кодек: MPEG2
Аудио кодек: PCM Wave
Видео: MPEG2 Video 720x576 (4:3) 25.00fps 9000Kbps [Video]
Аудио: PCM 48000Hz stereo 1536Kbps [Audio]
Код:
Код: Выделить всё
Общее
Полное имя                       : \\Школьный Физический Эксперимент. Электромагнитные волны - 2003\VIDEO_TS\VIDEO_TS.BUP
Формат                           : DVD Video
Профиль формата                  : Menu
Размер файла                     : 18,0 Кбайт
Видео
Идентификатор                    : 224 (0xE0)
Формат                           : MPEG Video
Версия формата                   : Version 2
Вид битрейта                     : Переменный
Ширина                           : 720 пикселей
Высота                           : 576 пикселей
Соотношение сторон               : 4:3
Частота кадров                   : 25,000 кадров/сек
Стандарт вещания                 : PAL
Метод сжатия                     : С потерями
Аудио
Формат                           : PCM
Каналы                           : 2 канала
Частота                          : 48,0 КГц
Текст
Формат                           : RLE
Формат/Информация                : Run-length encoding
Битовая глубина                  : 2 бит
Общее
Полное имя                       : \\Школьный Физический Эксперимент. Электромагнитные волны - 2003\VIDEO_TS\VIDEO_TS.IFO
Формат                           : DVD Video
Профиль формата                  : Menu
Размер файла                     : 18,0 Кбайт
Видео
Идентификатор                    : 224 (0xE0)
Формат                           : MPEG Video
Версия формата                   : Version 2
Вид битрейта                     : Переменный
Ширина                           : 720 пикселей
Высота                           : 576 пикселей
Соотношение сторон               : 4:3
Частота кадров                   : 25,000 кадров/сек
Стандарт вещания                 : PAL
Метод сжатия                     : С потерями
Аудио
Формат                           : PCM
Каналы                           : 2 канала
Частота                          : 48,0 КГц
Текст
Формат                           : RLE
Формат/Информация                : Run-length encoding
Битовая глубина                  : 2 бит
Общее
Полное имя                       : \\Школьный Физический Эксперимент. Электромагнитные волны - 2003\VIDEO_TS\VIDEO_TS.VOB
Формат                           : MPEG-PS
Размер файла                     : 288 Кбайт
Продолжительность                : 1 с. 240 мс.
Общий поток                      : 1903 Кбит/сек
Видео
Идентификатор                    : 224 (0xE0)
Формат                           : MPEG Video
Версия формата                   : Version 2
Профиль формата                  : Main@Main
Параметр BVOP формата            : Нет
Параметр матрицы формата         : По умолчанию
Параметр GOP формата             : N=1
Продолжительность                : 1 с. 240 мс.
Вид битрейта                     : Переменный
Битрейт                          : 1865 Кбит/сек
Максимальный битрейт             : 8000 Кбит/сек
Ширина                           : 720 пикселей
Высота                           : 576 пикселей
Соотношение сторон               : 4:3
Частота кадров                   : 25,000 кадров/сек
Стандарт вещания                 : PAL
Цветовое пространство            : YUV
Субдискретизация насыщенности    : 4:2:0
Битовая глубина                  : 8 бит
Тип развёртки                    : Чересстрочная
Порядок развёртки                : Нижнее поле первое
Метод сжатия                     : С потерями
Бит/(Пиксели*Кадры)              : 0.180
Размер потока                    : 282 Кбайт (98%)
Меню
Общее
Полное имя                       : \\Школьный Физический Эксперимент. Электромагнитные волны - 2003\VIDEO_TS\VTS_01_0.BUP
Формат                           : DVD Video
Профиль формата                  : Program
Размер файла                     : 48,0 Кбайт
Продолжительность                : 2 м. 15 с.
Общий поток                      : 2894 бит/сек
Видео
Идентификатор                    : 224 (0xE0)
Формат                           : MPEG Video
Версия формата                   : Version 2
Продолжительность                : 2 м. 15 с.
Вид битрейта                     : Переменный
Ширина                           : 720 пикселей
Высота                           : 576 пикселей
Соотношение сторон               : 4:3
Частота кадров                   : 25,000 кадров/сек
Стандарт вещания                 : PAL
Метод сжатия                     : С потерями
Аудио
Идентификатор                    : 0 (0x0)
Формат                           : PCM
Продолжительность                : 2 м. 15 с.
Каналы                           : 2 канала
Частота                          : 48,0 КГц
Язык                             : Russian
Меню #1
Продолжительность                : 2 м. 15 с.
00:00:00.000                     : Chapter 1
List (Audio)                     : 0
Меню #2
Продолжительность                : 1 м. 41 с.
00:00:00.000                     : Chapter 1
List (Audio)                     : 0
Общее
Полное имя                       : \\Школьный Физический Эксперимент. Электромагнитные волны - 2003\VIDEO_TS\VTS_01_0.IFO
Формат                           : DVD Video
Профиль формата                  : Program
Размер файла                     : 48,0 Кбайт
Продолжительность                : 2 м. 15 с.
Общий поток                      : 2894 бит/сек
Видео
Идентификатор                    : 224 (0xE0)
Формат                           : MPEG Video
Версия формата                   : Version 2
Продолжительность                : 2 м. 15 с.
Вид битрейта                     : Переменный
Ширина                           : 720 пикселей
Высота                           : 576 пикселей
Соотношение сторон               : 4:3
Частота кадров                   : 25,000 кадров/сек
Стандарт вещания                 : PAL
Метод сжатия                     : С потерями
Аудио
Идентификатор                    : 0 (0x0)
Формат                           : PCM
Продолжительность                : 2 м. 15 с.
Каналы                           : 2 канала
Частота                          : 48,0 КГц
Язык                             : Russian
Меню #1
Продолжительность                : 2 м. 15 с.
00:00:00.000                     : Chapter 1
List (Audio)                     : 0
Меню #2
Продолжительность                : 1 м. 41 с.
00:00:00.000                     : Chapter 1
List (Audio)                     : 0
Общее
Полное имя                       : \\Школьный Физический Эксперимент. Электромагнитные волны - 2003\VIDEO_TS\VTS_01_0.VOB
Формат                           : MPEG-PS
Размер файла                     : 59,7 Мбайт
Продолжительность                : 56 с.
Общий поток                      : 8805 Кбит/сек
Видео
Идентификатор                    : 224 (0xE0)
Формат                           : MPEG Video
Версия формата                   : Version 2
Профиль формата                  : Main@Main
Параметр BVOP формата            : Да
Параметр матрицы формата         : По умолчанию
Параметр GOP формата             : M=3, N=12
Продолжительность                : 56 с.
Вид битрейта                     : Переменный
Битрейт                          : 7094 Кбит/сек
Максимальный битрейт             : 8000 Кбит/сек
Ширина                           : 720 пикселей
Высота                           : 576 пикселей
Соотношение сторон               : 4:3
Частота кадров                   : 25,000 кадров/сек
Стандарт вещания                 : PAL
Цветовое пространство            : YUV
Субдискретизация насыщенности    : 4:2:0
Битовая глубина                  : 8 бит
Тип развёртки                    : Прогрессивная
Метод сжатия                     : С потерями
Бит/(Пиксели*Кадры)              : 0.684
Размер потока                    : 48,1 Мбайт (81%)
Аудио
Идентификатор                    : 189 (0xBD)-160 (0xA0)
Формат                           : PCM
Параметр Endianness формата      : Big
Параметр Sign формата            : Signed
Режим смешивания                 : DVD-Video
Продолжительность                : 398 мс.
Вид битрейта                     : Постоянный
Битрейт                          : 1536 Кбит/сек
Каналы                           : 2 канала
Расположение каналов             : Front: L R
Частота                          : 48,0 КГц
Битовая глубина                  : 16 бит
Задержка видео                   : -80 мс.
Размер потока                    : 74,6 Кбайт (0%)
Текст
Идентификатор                    : 189 (0xBD)-32 (0x20)
Формат                           : RLE
Формат/Информация                : Run-length encoding
Режим смешивания                 : DVD-Video
Задержка видео                   : -80 мс.
Меню
Общее
Полное имя                       : \\Школьный Физический Эксперимент. Электромагнитные волны - 2003\VIDEO_TS\VTS_01_1.VOB
Формат                           : MPEG-PS
Размер файла                     : 1000 Мбайт
Продолжительность                : 13 м.
Общий поток                      : 10,7 Мбит/сек
Видео
Идентификатор                    : 224 (0xE0)
Формат                           : MPEG Video
Версия формата                   : Version 2
Профиль формата                  : Main@Main
Параметр BVOP формата            : Да
Параметр матрицы формата         : По умолчанию
Параметр GOP формата             : M=3, N=12
Продолжительность                : 13 м.
Битрейт                          : 8970 Кбит/сек
Максимальный битрейт             : 9000 Кбит/сек
Ширина                           : 720 пикселей
Высота                           : 576 пикселей
Соотношение сторон               : 4:3
Частота кадров                   : 25,000 кадров/сек
Стандарт вещания                 : PAL
Цветовое пространство            : YUV
Субдискретизация насыщенности    : 4:2:0
Битовая глубина                  : 8 бит
Тип развёртки                    : Чересстрочная
Порядок развёртки                : Нижнее поле первое
Метод сжатия                     : С потерями
Бит/(Пиксели*Кадры)              : 0.865
Размер потока                    : 837 Мбайт (84%)
Аудио
Идентификатор                    : 189 (0xBD)-160 (0xA0)
Формат                           : PCM
Параметр Endianness формата      : Big
Параметр Sign формата            : Signed
Режим смешивания                 : DVD-Video
Продолжительность                : 13 м.
Вид битрейта                     : Постоянный
Битрейт                          : 1536 Кбит/сек
Каналы                           : 2 канала
Расположение каналов             : Front: L R
Частота                          : 48,0 КГц
Битовая глубина                  : 16 бит
Задержка видео                   : -80 мс.
Размер потока                    : 143 Мбайт (14%)
Меню
Общее
Полное имя                       : \\Школьный Физический Эксперимент. Электромагнитные волны - 2003\VIDEO_TS\VTS_01_2.VOB
Формат                           : MPEG-PS
Размер файла                     : 1000 Мбайт
Продолжительность                : 13 м.
Общий поток                      : 10,7 Мбит/сек
Видео
Идентификатор                    : 224 (0xE0)
Формат                           : MPEG Video
Версия формата                   : Version 2
Профиль формата                  : Main@Main
Параметр BVOP формата            : Да
Параметр матрицы формата         : По умолчанию
Параметр GOP формата             : M=3, N=12
Продолжительность                : 13 м.
Битрейт                          : 8969 Кбит/сек
Максимальный битрейт             : 9000 Кбит/сек
Ширина                           : 720 пикселей
Высота                           : 576 пикселей
Соотношение сторон               : 4:3
Частота кадров                   : 25,000 кадров/сек
Стандарт вещания                 : PAL
Цветовое пространство            : YUV
Субдискретизация насыщенности    : 4:2:0
Битовая глубина                  : 8 бит
Тип развёртки                    : Чересстрочная
Порядок развёртки                : Нижнее поле первое
Метод сжатия                     : С потерями
Бит/(Пиксели*Кадры)              : 0.865
Размер потока                    : 836 Мбайт (84%)
Аудио
Идентификатор                    : 189 (0xBD)-160 (0xA0)
Формат                           : PCM
Параметр Endianness формата      : Big
Параметр Sign формата            : Signed
Режим смешивания                 : DVD-Video
Продолжительность                : 13 м.
Вид битрейта                     : Постоянный
Битрейт                          : 1536 Кбит/сек
Каналы                           : 2 канала
Расположение каналов             : Front: L R
Частота                          : 48,0 КГц
Битовая глубина                  : 16 бит
Задержка видео                   : -394 мс.
Размер потока                    : 143 Мбайт (14%)
Меню
Общее
Полное имя                       : \\Школьный Физический Эксперимент. Электромагнитные волны - 2003\VIDEO_TS\VTS_01_3.VOB
Формат                           : MPEG-PS
Размер файла                     : 79,2 Мбайт
Продолжительность                : 1 м. 1 с.
Общий поток                      : 10,7 Мбит/сек
Видео
Идентификатор                    : 224 (0xE0)
Формат                           : MPEG Video
Версия формата                   : Version 2
Профиль формата                  : Main@Main
Параметр BVOP формата            : Да
Параметр матрицы формата         : По умолчанию
Параметр GOP формата             : M=3, N=12
Продолжительность                : 1 м. 1 с.
Битрейт                          : 8968 Кбит/сек
Максимальный битрейт             : 9000 Кбит/сек
Ширина                           : 720 пикселей
Высота                           : 576 пикселей
Соотношение сторон               : 4:3
Частота кадров                   : 25,000 кадров/сек
Стандарт вещания                 : PAL
Цветовое пространство            : YUV
Субдискретизация насыщенности    : 4:2:0
Битовая глубина                  : 8 бит
Тип развёртки                    : Чересстрочная
Порядок развёртки                : Нижнее поле первое
Метод сжатия                     : С потерями
Бит/(Пиксели*Кадры)              : 0.865
Размер потока                    : 66,2 Мбайт (84%)
Аудио
Идентификатор                    : 189 (0xBD)-160 (0xA0)
Формат                           : PCM
Параметр Endianness формата      : Big
Параметр Sign формата            : Signed
Режим смешивания                 : DVD-Video
Продолжительность                : 1 м. 1 с.
Вид битрейта                     : Постоянный
Битрейт                          : 1536 Кбит/сек
Каналы                           : 2 канала
Расположение каналов             : Front: L R
Частота                          : 48,0 КГц
Битовая глубина                  : 16 бит
Задержка видео                   : -155 мс.
Размер потока                    : 11,3 Мбайт (14%)
Меню


24.05.17 Торрент файл заменен с на публичный. -

Постеры

Соцсети

 

Статистика

Автор: Stepan
Добавлен: 07 апр 2018, 23:31
Размер: 2.09 ГБ
Размер: 2 243 252 224 байт
Сидеров: 0
Личеров: 0
Скачали: 0
Здоровье: 0%
Статус:
Скорость скачивания: 0 байт/сек
Скорость раздачи: 0 байт/сек
Последний сидер: Нет
Последний личер: Нет
Приватный: Нет (DHT включён)
Школьникам, студентам и педагогам Скачать торрент
Скачать торрент
[ Размер 11.42 КБ / Просмотров 1 ]

Поделиться



Вернуться в Школьникам, студентам и педагогам