Сообщение

Эконометрика / Econometrics [Экономика, WEBRip, RUS] (Видеоурок, Coursera)

Сообщение Stepan » 07 апр 2018, 23:48

Эконометрика / Econometrics
Страна: Россия
Тематика: Экономика
Тип раздаваемого материала: Видеоурок
Продолжительность: 21:16:10
Язык: Русский
Перевод: Не требуется
Язык субтитров: Русский
Описание: Эконометрика – наука, позволяющая исследовать закономерности в реальных данных. К концу курса мы научимся отвечать на два вопроса. Как одна переменная, y, зависит от другой переменной, x? Как спрогнозировать переменную y?
Мы будем подробно изучать линейные регрессионные модели, рассмотрим наиболее частые отклонения от предпосылок классической линейной регрессии. Изучим базовые модели (логит и пробит) для качественных зависимых переменных. Наряду с теоретической основой мы будем работать с реальными данными, используя статистический пакет R.
Качество: WEBRip
Формат: MP4
Видео: AVC, 960x540, 16:9, 347 Kbps, 29.970 fps
Аудио: AAC, 128 Kbps, 44.1 KHz, 2 ch
Неделя 1: Метод наименьших квадратов, введение в R
Лекция 1: Основные типы данных. Метод наименьших квадратов. Регрессия на константу. Готовые формулы для парной регрессии. Множественная регрессия. Ошибка прогноза. Сумма квадратов остатков. Общая сумма квадратов. Объясненная сумма квадратов. Абсолютный ликбез по линейной алгебре. Геометрическая иллюстрация множественного МНК. Коэффициент детерминации.
Компьютерный практикум: Консольный режим. Вектора, списки, таблицы с данными. Установка пакетов. Получение справки. Описательные статистики. Простейшие графики. Метод наименьших квадратов.
Неделя 2: Статистические свойства оценок коэффициентов
Лекция 2: Условное математическое ожидание. Ковариационная матрица случайной составляющей. Дисперсия оценок коэффициентов. Статистические свойства коэффициентов. Несмещенность. Состоятельность. Эффективность. Тестирование гипотез и построение доверительных интервалов для коэффициентов. Значимость и существенность. Стандартизованные коэффициенты. Проблема множественных сравнений.
Компьютерный практикум: Работа со случайными величинами. Доверительные интервалы и проверка гипотез. Эксперимент с бесполезными регрессорами. Табличка с несколькими моделями. Сохранение и чтение файлов. Импорт данных RLMS.
Неделя 3: Дамми-переменные, сравнение вложенных моделей
Лекция 3: Прогнозирование. Доверительный и предиктивный интервал. Четыре модели с логарифмами. Дамми-переменные. Разные модели на подвыборках. Проверка гипотезы о линейных ограничениях. Ограниченная и неограниченная модель. Лишние и пропущенные переменные. Тест Рамсея. Скорректированный коэффициент детерминации. Информационные критерии.
Компьютерный практикум: Переход к логарифмам. Графики для качественных переменных. Ограниченная и неограниченная модель. F-тест. Тест Рамсея. Нано-исследование.
Неделя 4: Мультиколлинеарность
Лекция 4: Строгая и нестрогая мультиколлинеарность. Последствия мультиколлинеарности. Коэффициент вздутия дисперсии. Регуляризация. Метод Лассо. Ридж-регрессия. Метод эластичной сети. Метод главных компонент.
Компьютерный практикум: Коэффициент вздутия дисперсии. Ридж-регрессия. Метод Лассо. Метод главных компонент. Визуализация главных компонент.
Неделя 5: Гетероскедастичность
Лекция 5: Определение гетероскедастичность. Последствия гетероскедастичности. Стандартные ошибки, робастные к гетероскедастичности. Тест Уайта. Тест Голдфельда - Квандта.
Компьютерный практикум: Стандартные ошибки, устойчивые к гетероскедастичности. Корректные доверительные интервалы. Тест Уайта. Тест Голдфельда - Квандта.
Неделя 6: Автокорреляция
Лекция 6: Определение автокорреляции. Последствия автокорреляции. Автокорреляция порядка p. Стандартные ошибки, робастные к автокорреляции. Тест Дарбина-Уотсона. Тест Бройша-Годфри.
Компьютерный практикум: Работа с датами. Загрузка данных из интернет-источников: цены акций, российские макроэкономические ряды. Тест Дарбина-Уотсона. Тест Бройша-Годфри.
Неделя 7: Метод максимального правдоподобия. Модели бинарного выбора
Лекция 7: Метод максимального правдоподобия. Свойства оценок максимального правдоподобия. Оценка дисперсии коэффициента. Тест отношения правдоподобия. Модели бинарного выбора: логит и пробит-модели. Предельные эффекты. Прогнозирование.
Компьютерный практикум: Мозаичный график. Оценивание логит и пробит-моделей. Прогнозирование. Предельные эффекты. ROC-кривая.
Неделя 8: Стационарные временные ряды
Лекция 8: Стационарные и нестационарные временные ряды. Оператор лага. Процессы авторегрессии и скользящего среднего (ARMA). Корни характеристического уравнения. Автокорреляционная и частная автокорреляционная функция.
Компьютерный практикум: Симуляция моделей ARIMA. Автокорреляционные и частные автокорреляционные функции. Оценивание моделей. Прогнозирование. Автоматический выбор порядка модели.
Неделя 9: Эндогенность
Лекция 9: Несколько форм записи модели. Понятие эндогенности. Основные причины эндогенности. Ошибка измерения регрессора. Пропущенная объясняемая переменная. Одновременнось. Метод инструментальных переменных. Двухшаговый метод наименьших квадратов. Причинность и статистическая взаимосвязь. Данные наблюдений и экспериментов.
Компьютерный практикум: Разделение выборки на две части. Двухшаговый МНК. Несколько инструментальных переменных.
Неделя 10: Нестандартные сюжеты
Лекция 10: Медианная регрессия. Квантильная регрессия. Классификационное дерево. Алгоритм случайного леса. Байесовский подход. Априорное и апостериорное распределение. Байесовская логит-модель. Регрессия пик-плато.
Компьютерный практикум: Медианная регрессия. Квантильная регрессия. Алгоритм случайного леса. Баейсовская логит-модель. Регрессия пик-плато.
Код:
Код: Выделить всё
General
Format                                   : MPEG-4
Format profile                           : Base Media
Codec ID                                 : isom
File size                                : 2.59 MiB
Duration                                 : 45s 60ms
Overall bit rate                         : 483 Kbps
Writing application                      : Lavf55.19.104
Video
ID                                       : 1
Format                                   : AVC
Format/Info                              : Advanced Video Codec
Format profile                           : Main@L3.1
Format settings, CABAC                   : Yes
Format settings, ReFrames                : 4 frames
Codec ID                                 : avc1
Codec ID/Info                            : Advanced Video Coding
Duration                                 : 44s 979ms
Bit rate                                 : 347 Kbps
Width                                    : 960 pixels
Height                                   : 540 pixels
Display aspect ratio                     : 16:9
Frame rate mode                          : Constant
Frame rate                               : 29.970 fps
Color space                              : YUV
Chroma subsampling                       : 4:2:0
Bit depth                                : 8 bits
Scan type                                : Progressive
Bits/(Pixel*Frame)                       : 0.022
Stream size                              : 1.86 MiB (72%)
Writing library                          : x264 core 138
Encoding settings                        : cabac=1 / ref=3 / deblock=1:0:0 / analyse=0x1:0x111 / me=hex / subme=7 / psy=1 / psy_rd=1.00:0.00 / mixed_ref=1 / me_range=16 / chroma_me=1 / trellis=1 / 8x8dct=0 / cqm=0 / deadzone=21,11 / fast_pskip=1 / chroma_qp_offset=-2 / threads=12 / lookahead_threads=2 / sliced_threads=0 / nr=0 / decimate=1 / interlaced=0 / bluray_compat=0 / constrained_intra=0 / bframes=3 / b_pyramid=2 / b_adapt=1 / b_bias=0 / direct=1 / weightb=1 / open_gop=0 / weightp=2 / keyint=250 / keyint_min=25 / scenecut=40 / intra_refresh=0 / rc_lookahead=40 / rc=crf / mbtree=1 / crf=28.0 / qcomp=0.60 / qpmin=0 / qpmax=69 / qpstep=4 / ip_ratio=1.40 / aq=1:1.00
Language                                 : English
Audio
ID                                       : 2
Format                                   : AAC
Format/Info                              : Advanced Audio Codec
Format profile                           : LC
Codec ID                                 : 40
Duration                                 : 45s 60ms
Duration_LastFrame                       : -10ms
Bit rate mode                            : Constant
Bit rate                                 : 128 Kbps
Channel(s)                               : 2 channels
Channel positions                        : Front: L R
Sampling rate                            : 44.1 KHz
Compression mode                         : Lossy
Stream size                              : 704 KiB (27%)
Language                                 : English
[/spoiler]

Постеры

Соцсети

 

Статистика

Автор: Stepan
Добавлен: 07 апр 2018, 23:48
Размер: 2.96 ГБ
Размер: 3 180 747 943 байт
Сидеров: 0
Личеров: 0
Скачали: 0
Здоровье: 0%
Статус:
Скорость скачивания: 0 байт/сек
Скорость раздачи: 0 байт/сек
Последний сидер: Нет
Последний личер: Нет
Приватный: Нет (DHT включён)
Школьникам, студентам и педагогам Скачать торрент
Скачать торрент
[ Размер 55.98 КБ / Просмотров 1 ]

Поделиться



Вернуться в Школьникам, студентам и педагогам