Сообщение

How Music Works with Howard Goodall [4/4] [2006, учебный фильм, HDTVRip, ENG]

Сообщение Stepan » 07 апр 2018, 23:48

How Music Works with Howard Goodall
Как устроена музыка
Производитель: More4
Язык: английский
Год выпуска: 2006
Страна: Великобритания
Жанр: учебный, научно-популярный фильм
Продолжительность: 3ч. 12мин.
Количество серий: 4
Описание:
Известный британский композитор Говард Гуделл рассказывает о том, как устроена музыка. Рассказывает очень необычно. Что-то играет сам, что-то напевает, что-то ему играют приглашенные музыканты (а он в это время поясняет, что они делают), что-то показывается на примерах видео, что-то на примерах кубиков с пол человеческого роста, а что-то на примере батареи из 16 прожекторов, которые включаются с определенным ритмом. Прямые параллели между Бахом и Стиви Уандером; кельтской музыкой, джазом и вальсами Штрауса и т.д. В общем, невероятно разнообразный, остроумный и интересный курс о том, из чего состоит музыка.
Разбираются и сравниваются различные жанры, стили и направления - классика, этническая музыка, рок, джаз, рэп, симфоническая, экспериментальная и популярная музыка. При этом никаких оценок - только трезвый и занимательный анализ: из чего состоит, как устроена, почему вызывает у слушателей такие разные или наоборот похожие эмоции и ощущения.
В сериале 4 части - о мелодии, о ритме, о гармонии и о бассе.
How Music Works was last shown on More4 in December 2006.
Why do some rhythms get our toes tapping, while others make us feel mellow? How does a love song bring tears to our eyes? What links African drumming to J S Bach?
In this new four-part series composer Howard Goodall strips music down to its essential parts to find out how music works.
We all respond to music – whether clicking our fingers, humming along or dancing – there's something out there for everyone. In this series Goodall looks at melody, rhythm, harmony and bass to establish how music is made and how it comes to reflect different cultures.
Setting out on a journey that spans the globe and moves through the centuries, Goodall uncovers the elements that are shared by all styles of music. Following a trail of diverse musical talents from Mahler to David Bowie; the blues to Bulgarian folk songs; medieval choral music to disco; he reveals the tried and tested tricks of the composer's trade.
Programme 1: Melody
Why does melody affect us so deeply, from the moment we are born? Tunes touch our deepest emotions, and are capable of inspiring love, sorrow, faith, and hope. But how does a melody actually work?
In this film composer Howard Goodall looks at melody's basic elements. Why are some melodic shapes common to all cultures across the world? Can successful melodies be written at random? If not, what are the familiar melodic patterns composers of all types of music have fallen back on again and again, and why do they work?
Setting out on a journey that moves through the centuries, Howard looks at the curious link between Tudor England and the Mississippi Delta, and uncovers melodic shapes common to all cultures across the world. Following a trail of diverse musical sources from Gustav Mahler to Paul Simon, Shaker hymns to Bulgarian folk songs, medieval choral music to the Broadway showstoppers – he reveals the tried and tested tricks of the composer's trade.
Programme 2: Rhythm
From the moment our hearts start beating, rhythm is integral to us all. From walking to dancing, from clicking our fingers to tapping our toes, we are all programmed to respond to rhythm. In this film Howard looks at the common rhythmic patterns that have been used by musicians from all cultures, from Brahms to rappers, from the founders of Cuban son to Philip Glass, from Stevie Wonder to Fats Waller.
Why do some rhythms make us want to dance, while others make us feel tranquil? How does rhythm 'work' when there is no obvious pulse, as in much classical music? What links African drumming to J S Bach? Why do virtually all popular singers sing ahead of the beat?
And how is it that a tiny Caribbean island has produced a rhythm that dominates popular music the world over?
Programme 3: Harmony
In the late middle ages western harmony started on a journey that would take it in a completely separate direction to that of the music of other parts of the world. It discovered chords, and, over the next seven centuries, began to unlock their harmonic possibilities. In this film Howard looks at how western harmony works, and how, in the present day, it has fused with other forms of music to create new styles.
Chords led to chord progressions, and Howard looks at how familiar patterns of chord progressions give all kinds of music – from classical to popular – their sense of forward movement. Why do the same chord patterns appear again and again, from Renaissance Italy to the latest chart hit?
Musicians have always liked to tamper with the basic chords, and experiment with dissonance. We see how these tricks of the trade actually work, and the emotional and musical effect they have. From the folk musicians of the middle ages to Bach, Beethoven, and Wagner, from Chuck Berry to David Bowie, Hendrix to Coldplay, the same harmonic techniques surface again and again.
Programme 4: Bass
Music is usually broken down into melody, rhythm and harmony. But what about the very lowest notes in music, that can have an impact on all three? In this film Howard looks at the abiding fascination musicians and composers have had with the bass.
For half a millennium instrument makers have been trying to construct instruments of all shapes and sizes capable of thudding, sonorous low notes. Only with the arrival of the synthesizer did they succeed in producing a rival to the mighty organ. With disco, dance, and drum 'n' bass, the bass has arrived centre stage.
But bass notes have another, crucial role. Far from just plodding away in the background, bass lines can have a critical effect on the whole structure of a piece of music, helping to drive the chord progressions.
Howard looks at the dark horse of the musical family, and its use in the hands of such diverse musical talents as Johann (and Richard) Strauss, John Philip Sousa, Stevie Wonder, Elton John, Albinoni, Bach and Motown's resident bass maestro, James Jamerson.
Качество: HDTV Rip
Формат: AVI
Видео кодек: XviD
Аудио кодек: MPEG Audio
Видео: 704x400 [9:16] FPS 25
Аудио: 192 kb/s 48 000 Hz
Код:
Код: Выделить всё
Общее
Полное имя                       : \How Music Works\How_Music_Works_1of4_Melody_Xvid_MP3.avi
Формат                           : AVI
Формат/Информация                : Audio Video Interleave
Размер файла                     : 500 Мбайт
Продолжительность                : 48 м.
Общий поток                      : 1447 Кбит/сек
Программа кодирования            : VirtualDubMod 1.5.4.1 (build 2178/release)
Библиотека кодирования           : VirtualDubMod build 2178/release
Видео
Идентификатор                    : 0
Формат                           : MPEG-4 Visual
Профиль формата                  : Advanced Simple@L5
Параметр BVOP формата            : 1
Параметр QPel формата            : Нет
Параметр GMC формата             : Без точки перехода
Параметр матрицы формата         : Выборочная
Идентификатор кодека             : XVID
Идентификатор кодека/Подсказка   : XviD
Продолжительность                : 48 м.
Битрейт                          : 1248 Кбит/сек
Ширина                           : 704 пикселя
Высота                           : 400 пикселей
Соотношение сторон               : 16:9
Частота кадров                   : 25,000 кадров/сек
Цветовое пространство            : YUV
Субдискретизация насыщенности    : 4:2:0
Битовая глубина                  : 8 бит
Тип развёртки                    : Прогрессивная
Метод сжатия                     : С потерями
Бит/(Пиксели*Кадры)              : 0.177
Размер потока                    : 431 Мбайт (86%)
Библиотека кодирования           : XviD 0039 build=2005.09.25 (UTC 2005-09-25)
Аудио
Идентификатор                    : 1
Формат                           : MPEG Audio
Версия формата                   : Version 1
Профиль формата                  : Layer 3
Режим                            : Joint stereo
Идентификатор кодека             : 55
Идентификатор кодека/Подсказка   : MP3
Продолжительность                : 48 м.
Вид битрейта                     : Постоянный
Битрейт                          : 192 Кбит/сек
Каналы                           : 2 канала
Частота                          : 48,0 КГц
Метод сжатия                     : С потерями
Размер потока                    : 66,3 Мбайт (13%)
Выравнивание                     : Соединение по промежуткам
Продолжительность промежутка     : 80  мс. (2,00 видеокадра)
Время предзагрузки промежутка    : 504  мс.
Библиотека кодирования           : LAME3.96r
Настройки программы              : -m j -V 4 -q 2 -lowpass 19.5 -b 192
Общее
Полное имя                       : \How Music Works\How_Music_Works_2of4_Rhythm_Xvid_MP3.avi
Формат                           : AVI
Формат/Информация                : Audio Video Interleave
Размер файла                     : 500 Мбайт
Продолжительность                : 47 м.
Общий поток                      : 1457 Кбит/сек
Программа кодирования            : VirtualDubMod 1.5.4.1 (build 2178/release)
Библиотека кодирования           : VirtualDubMod build 2178/release
Видео
Идентификатор                    : 0
Формат                           : MPEG-4 Visual
Профиль формата                  : Advanced Simple@L5
Параметр BVOP формата            : 1
Параметр QPel формата            : Нет
Параметр GMC формата             : Без точки перехода
Параметр матрицы формата         : Выборочная
Идентификатор кодека             : XVID
Идентификатор кодека/Подсказка   : XviD
Продолжительность                : 47 м.
Битрейт                          : 1258 Кбит/сек
Ширина                           : 704 пикселя
Высота                           : 400 пикселей
Соотношение сторон               : 16:9
Частота кадров                   : 25,000 кадров/сек
Цветовое пространство            : YUV
Субдискретизация насыщенности    : 4:2:0
Битовая глубина                  : 8 бит
Тип развёртки                    : Прогрессивная
Метод сжатия                     : С потерями
Бит/(Пиксели*Кадры)              : 0.179
Размер потока                    : 432 Мбайт (86%)
Библиотека кодирования           : XviD 0039 build=2005.09.25 (UTC 2005-09-25)
Аудио
Идентификатор                    : 1
Формат                           : MPEG Audio
Версия формата                   : Version 1
Профиль формата                  : Layer 3
Режим                            : Joint stereo
Идентификатор кодека             : 55
Идентификатор кодека/Подсказка   : MP3
Продолжительность                : 47 м.
Вид битрейта                     : Постоянный
Битрейт                          : 192 Кбит/сек
Каналы                           : 2 канала
Частота                          : 48,0 КГц
Метод сжатия                     : С потерями
Размер потока                    : 65,9 Мбайт (13%)
Выравнивание                     : Соединение по промежуткам
Продолжительность промежутка     : 80  мс. (2,00 видеокадра)
Время предзагрузки промежутка    : 504  мс.
Библиотека кодирования           : LAME3.96r
Настройки программы              : -m j -V 4 -q 2 -lowpass 19.5 -b 192
Общее
Полное имя                       : \How Music Works\How_Music_Works_3of4_Harmony_Xvid_MP3.avi
Формат                           : AVI
Формат/Информация                : Audio Video Interleave
Размер файла                     : 500 Мбайт
Продолжительность                : 48 м.
Общий поток                      : 1446 Кбит/сек
Программа кодирования            : VirtualDubMod 1.5.4.1 (build 2178/release)
Библиотека кодирования           : VirtualDubMod build 2178/release
Видео
Идентификатор                    : 0
Формат                           : MPEG-4 Visual
Профиль формата                  : Advanced Simple@L5
Параметр BVOP формата            : 1
Параметр QPel формата            : Нет
Параметр GMC формата             : Без точки перехода
Параметр матрицы формата         : Выборочная
Идентификатор кодека             : XVID
Идентификатор кодека/Подсказка   : XviD
Продолжительность                : 48 м.
Битрейт                          : 1247 Кбит/сек
Ширина                           : 704 пикселя
Высота                           : 400 пикселей
Соотношение сторон               : 16:9
Частота кадров                   : 25,000 кадров/сек
Цветовое пространство            : YUV
Субдискретизация насыщенности    : 4:2:0
Битовая глубина                  : 8 бит
Тип развёртки                    : Прогрессивная
Метод сжатия                     : С потерями
Бит/(Пиксели*Кадры)              : 0.177
Размер потока                    : 431 Мбайт (86%)
Библиотека кодирования           : XviD 0039 build=2005.09.25 (UTC 2005-09-25)
Аудио
Идентификатор                    : 1
Формат                           : MPEG Audio
Версия формата                   : Version 1
Профиль формата                  : Layer 3
Режим                            : Joint stereo
Идентификатор кодека             : 55
Идентификатор кодека/Подсказка   : MP3
Продолжительность                : 48 м.
Вид битрейта                     : Постоянный
Битрейт                          : 192 Кбит/сек
Каналы                           : 2 канала
Частота                          : 48,0 КГц
Метод сжатия                     : С потерями
Размер потока                    : 66,4 Мбайт (13%)
Выравнивание                     : Соединение по промежуткам
Продолжительность промежутка     : 80  мс. (2,00 видеокадра)
Время предзагрузки промежутка    : 504  мс.
Библиотека кодирования           : LAME3.96r
Настройки программы              : -m j -V 4 -q 2 -lowpass 19.5 -b 192
Общее
Полное имя                       : \How Music Works\How_Music_Works_4of4_Bass_Xvid_MP3.avi
Формат                           : AVI
Формат/Информация                : Audio Video Interleave
Размер файла                     : 500 Мбайт
Продолжительность                : 48 м.
Общий поток                      : 1446 Кбит/сек
Программа кодирования            : VirtualDubMod 1.5.4.1 (build 2178/release)
Библиотека кодирования           : VirtualDubMod build 2178/release
Видео
Идентификатор                    : 0
Формат                           : MPEG-4 Visual
Профиль формата                  : Advanced Simple@L5
Параметр BVOP формата            : 1
Параметр QPel формата            : Нет
Параметр GMC формата             : Без точки перехода
Параметр матрицы формата         : Выборочная
Идентификатор кодека             : XVID
Идентификатор кодека/Подсказка   : XviD
Продолжительность                : 48 м.
Битрейт                          : 1247 Кбит/сек
Ширина                           : 704 пикселя
Высота                           : 400 пикселей
Соотношение сторон               : 16:9
Частота кадров                   : 25,000 кадров/сек
Цветовое пространство            : YUV
Субдискретизация насыщенности    : 4:2:0
Битовая глубина                  : 8 бит
Тип развёртки                    : Прогрессивная
Метод сжатия                     : С потерями
Бит/(Пиксели*Кадры)              : 0.177
Размер потока                    : 431 Мбайт (86%)
Библиотека кодирования           : XviD 0039 build=2005.09.25 (UTC 2005-09-25)
Аудио
Идентификатор                    : 1
Формат                           : MPEG Audio
Версия формата                   : Version 1
Профиль формата                  : Layer 3
Режим                            : Joint stereo
Идентификатор кодека             : 55
Идентификатор кодека/Подсказка   : MP3
Продолжительность                : 48 м.
Вид битрейта                     : Постоянный
Битрейт                          : 192 Кбит/сек
Каналы                           : 2 канала
Частота                          : 48,0 КГц
Метод сжатия                     : С потерями
Размер потока                    : 66,4 Мбайт (13%)
Выравнивание                     : Соединение по промежуткам
Продолжительность промежутка     : 80  мс. (2,00 видеокадра)
Время предзагрузки промежутка    : 504  мс.
Библиотека кодирования           : LAME3.96r
Настройки программы              : -m j -V 4 -q 2 -lowpass 19.5 -b 192


27.05.17 Торрент файл заменен с на публичный. -

Постеры

Соцсети

 

Статистика

Автор: Stepan
Добавлен: 07 апр 2018, 23:48
Размер: 1.95 ГБ
Размер: 2 097 238 016 байт
Сидеров: 0
Личеров: 0
Скачали: 0
Здоровье: 0%
Статус:
Скорость скачивания: 0 байт/сек
Скорость раздачи: 0 байт/сек
Последний сидер: Нет
Последний личер: Нет
Приватный: Нет (DHT включён)
Школьникам, студентам и педагогам Скачать торрент
Скачать торрент
[ Размер 20.25 КБ / Просмотров 1 ]

Поделиться



Вернуться в Школьникам, студентам и педагогам