Сообщение

Математическая статистика / Statistics: Making Sense of Data [2013, Математика / Статистика, ENG sub] (Видеоурок)

Сообщение Stepan » 07 апр 2018, 23:55

Математическая статистика / Statistics: Making Sense of Data
Страна: Canada
Платформа: Coursera
Университет: University of Toronto
Тематика: Математика / Статистика
Тип раздаваемого материала: Видеоурок
Продолжительность: 09:56:09
Год выпуска: 2013
Язык: Английский
Перевод: Отсутствует
Язык субтитров: Английский
Описание: Математическая статистика — раздел математики, разрабатывающий методы регистрации, описания и анализа данных наблюдений и экспериментов с целью построения вероятностных моделей массовых случайных явлений.
We live in a world where data are increasingly available, in ever larger quantities, and are increasingly expected to form the basis for decisions by governments, businesses, and other organizations, as well as by individuals in their daily lives. To cope effectively, every informed citizen must be statistically literate.
This course will provide an intuitive introduction to applied statistical reasoning, introducing fundamental statistical skills and acquainting students with the full process of inquiry and evaluation used in investigations in a wide range of fields. In particular, the course will cover methods of data collection, constructing effective graphical and numerical displays to understand the data, how to estimate and describe the error in estimates of some important quantities, and the key ideas in how statistical tests can be used to separate significant differences from those that are only a reflection of the natural variability in data.
A first look at data
Weeks 1-2: Summary statistics and graphical displays for a single categorical or quantitative variable and for relationships between two variables.
Collecting data
Week 2: Sampling. Observational studies and experiments. The effect of confounding and concluding causation.
Probability
Week 3: Probability models, the normal distribution, the Law of Large Numbers, the Central Limit Theorem, sampling distributions.
Confidence Intervals
Week 4: Confidence intervals and sample size estimation for proportions and means.
Tests of significance
Week 5: Tests of significance, power and sample size estimation for proportions and means
Two samples
Week 6: Tests of significance and confidence intervals for proportions and means in the two sample case.
Simple linear regression
Week 7: Method of least squares, evaluating model fit, the effects of outliers and influential observations.
The process of statistical inquiry
Week 8: Capstone case study.
Технические данные
Качество: WEBRip
Формат: MP4
Видео кодек: AVC
Аудио кодек: AAC
Видео: AVC, 960x540, 29.970 fps, 360 kbps
Аудио: AAC, 44.1 kHz, 2 ch, 128 kbps
General
Complete name : 1 - 7 - 1.7 Some Features of Data (739).mp4
Format : MPEG-4
Format profile : Base Media
Codec ID : isom
File size : 9.34 MiB
Duration : 7mn 39s
Overall bit rate mode : Variable
Overall bit rate : 170 Kbps
Writing application : Lavf53.29.100
Video
ID : 1
Format : AVC
Format/Info : Advanced Video Codec
Format profile : High@L3.1
Format settings, CABAC : Yes
Format settings, ReFrames : 4 frames
Codec ID : avc1
Codec ID/Info : Advanced Video Coding
Duration : 7mn 39s
Bit rate : 39.2 Kbps
Width : 960 pixels
Height : 540 pixels
Display aspect ratio : 16:9
Frame rate mode : Constant
Frame rate : 15.000 fps
Color space : YUV
Chroma subsampling : 4:2:0
Bit depth : 8 bits
Scan type : Progressive
Bits/(Pixel*Frame) : 0.005
Stream size : 2.15 MiB (23%)
Writing library : x264 core 120 r2120 0c7dab9
Encoding settings : cabac=1 / ref=3 / deblock=1:0:0 / analyse=0x3:0x113 / me=hex / subme=7 / psy=1 / psy_rd=1.00:0.00 / mixed_ref=1 / me_range=16 / chroma_me=1 / trellis=1 / 8x8dct=1 / cqm=0 / deadzone=21,11 / fast_pskip=1 / chroma_qp_offset=-2 / threads=12 / sliced_threads=0 / nr=0 / decimate=1 / interlaced=0 / bluray_compat=0 / constrained_intra=0 / bframes=3 / b_pyramid=2 / b_adapt=1 / b_bias=0 / direct=1 / weightb=1 / open_gop=0 / weightp=2 / keyint=250 / keyint_min=15 / scenecut=40 / intra_refresh=0 / rc_lookahead=40 / rc=crf / mbtree=1 / crf=28.0 / qcomp=0.60 / qpmin=0 / qpmax=69 / qpstep=4 / ip_ratio=1.40 / aq=1:1.00
Audio
ID : 2
Format : AAC
Format/Info : Advanced Audio Codec
Format profile : LC
Codec ID : 40
Duration : 7mn 39s
Bit rate mode : Variable
Bit rate : 128 Kbps
Channel(s) : 2 channels
Channel positions : Front: L R
Sampling rate : 44.1 KHz
Compression mode : Lossy
Delay relative to video : 133ms
Stream size : 6.96 MiB (75%)
Дополнительные материалы:
- субтитры,
- R-скрипты,
- данные, использовавшиеся в лекциях,
- сделанные студентами слайды к лекциям и конспекты

Постеры

Соцсети

 

Статистика

Автор: Stepan
Добавлен: 07 апр 2018, 23:55
Размер: 829.16 МБ
Размер: 869 440 449 байт
Сидеров: 0
Личеров: 0
Скачали: 0
Здоровье: 0%
Статус:
Скорость скачивания: 0 байт/сек
Скорость раздачи: 0 байт/сек
Последний сидер: Нет
Последний личер: Нет
Приватный: Нет (DHT включён)
Школьникам, студентам и педагогам Скачать торрент
Скачать торрент
[ Размер 35.72 КБ / Просмотров 0 ]

Поделиться



  • Похожие торренты
    Ответы
    Просмотры
    Последнее сообщение

Вернуться в Школьникам, студентам и педагогам