Сообщение

Основы микроэкономики [2014, Экономика, WEBRip, RUS] (Видеоурок, Coursera)

Сообщение Stepan » 07 апр 2018, 23:56

Основы микроэкономики
Страна: Россия
Тематика: Экономика
Тип раздаваемого материала: Видеоурок
Продолжительность: 09:55:51
Год выпуска: 2014
Язык: Русский
Перевод: Не требуется
Описание: Самое сложное экономическое событие сводится, в конечном счёте, к действиям отдельных людей и фирм. Микроэкономика показывает, как можно эти действия анализировать – как люди выбирают, что потреблять, а фирмы – что производить.
Качество: WEBRip
Формат: MP4
Аудио кодек: AAC
Видео: H264, 960x540, 281 kbps, 29.970 fps
Аудио: AAC, 128 kbps, 44,1 kHz, 2 ch
Общее
Полное имя : F:\Microeconomics Principles\1 - 1 - 1.1. Что изучают экономисты_ Научный подход (13_46).mp4
Формат : MPEG-4
Профиль формата : Base Media
Идентификатор кодека : isom
Размер файла : 27,7 Мбайт
Продолжительность : 13 м.
Общий поток : 281 Кбит/сек
Программа кодирования : Lavf55.10.100
Видео
Идентификатор : 1
Формат : AVC
Формат/Информация : Advanced Video Codec
Профиль формата : Main@L3.1
Параметр CABAC формата : Да
Параметр ReFrames формата : 4 кадра
Идентификатор кодека : avc1
Идентификатор кодека/Информация : Advanced Video Coding
Продолжительность : 13 м.
Битрейт : 144 Кбит/сек
Ширина : 960 пикселей
Высота : 540 пикселей
Соотношение сторон : 16:9
Режим частоты кадров : Постоянный
Частота кадров : 29,970 кадров/сек
Цветовое пространство : YUV
Субдискретизация насыщенности : 4:2:0
Битовая глубина : 8 бит
Тип развёртки : Прогрессивная
Бит/(Пиксели*Кадры) : 0.009
Размер потока : 14,2 Мбайт (51%)
Библиотека кодирования : x264 core 129 r2230 1cffe9f
Настройки программы : cabac=1 / ref=3 / deblock=1:0:0 / analyse=0x1:0x111 / me=hex / subme=7 / psy=1 / psy_rd=1.00:0.00 / mixed_ref=1 / me_range=16 / chroma_me=1 / trellis=1 / 8x8dct=0 / cqm=0 / deadzone=21,11 / fast_pskip=1 / chroma_qp_offset=-2 / threads=12 / lookahead_threads=2 / sliced_threads=0 / nr=0 / decimate=1 / interlaced=0 / bluray_compat=0 / constrained_intra=0 / bframes=3 / b_pyramid=2 / b_adapt=1 / b_bias=0 / direct=1 / weightb=1 / open_gop=0 / weightp=2 / keyint=250 / keyint_min=25 / scenecut=40 / intra_refresh=0 / rc_lookahead=40 / rc=crf / mbtree=1 / crf=28.0 / qcomp=0.60 / qpmin=0 / qpmax=69 / qpstep=4 / ip_ratio=1.40 / aq=1:1.00
Язык : English
Аудио
Идентификатор : 2
Формат : AAC
Формат/Информация : Advanced Audio Codec
Профиль формата : LC
Идентификатор кодека : 40
Продолжительность : 13 м.
Вид битрейта : Постоянный
Битрейт : 128 Кбит/сек
Каналы : 2 канала
Расположение каналов : Front: L R
Частота : 44,1 КГц
Метод сжатия : С потерями
Размер потока : 12,7 Мбайт (46%)
Язык : English


Постеры

Соцсети

 

Статистика

Автор: Stepan
Добавлен: 07 апр 2018, 23:56
Размер: 1.25 ГБ
Размер: 1 338 624 629 байт
Сидеров: 0
Личеров: 0
Скачали: 0
Здоровье: 0%
Статус:
Скорость скачивания: 0 байт/сек
Скорость раздачи: 0 байт/сек
Последний сидер: Нет
Последний личер: Нет
Приватный: Нет (DHT включён)
Школьникам, студентам и педагогам Скачать торрент
Скачать торрент
[ Размер 19.13 КБ / Просмотров 1 ]

Поделиться



Вернуться в Школьникам, студентам и педагогам