Сообщение

Универсариум. Физика на кончиках пальцев [2014, Физика, Webrip, RUS] (видеокурс) [2014, Физика, RUS] (Видеоурок)

Сообщение Stepan » 07 апр 2018, 23:56

Универсариум. Физика на кончиках пальцев [2014, Физика, Webrip, RUS] (видеокурс)
Страна: Россия
Издатель: http://universarium.org/
Тематика: Физика
Продолжительность: 11:06:49 (48 отдельных лекций)
Год выпуска: 2014
Язык: Русский
Описание: Видеокурс по физике
О курсе и авторах
Настоящий курс вовсе не претендует на последовательность изложения и на строгость выводов формул. Этот курс будет состоять из описания различных физических явлений, которые можно объяснить на пальцах, в танце или рисуя на доске. А что до строгого изложения предмета, с использованием сложного математического аппарата, то иногда за этим можно потерять конечную цель изучения. В рамках курса будет рассказано от души или от сердца о том, что автору кажется наиболее интересным и наглядным.
Модули и структура курса
1. Механика (динамика) - 7 лекций
2. Механика. Колебания, звук - 6 лекций
3. Газодинамика. Некоторые вопросы молекулярной физики - 8 лекций
4. Электричество - 10 лекций
5. Оптика - 9 лекций
6. Начала квантовой механики - 8 лекций
Цель изучения курса
Курс вовсе не претендует на последовательность изложения и на строгость выводов формул. Но позволяет просто и наглядно изучить различные физические явления
Необходимый уровень подготовки
Школьники средних и старших классов и их родители, студенты естественных факультетов
Результаты изучения курса
Иметь представление об основных законах общей физики и понимание физических явлений.
Качество: WEBRip
Формат: .mp4
Видео: avc1, 1280x720, 600 Кбит/сек, 23.976 кадра/сек
Аудио: 40, 48,0 КГц, 80,0 Кбит/сек, 2 канала
Общее
Формат : MPEG-4
Профиль формата : Base Media
Идентификатор кодека : isom
Размер файла : 31,1 Мбайт
Продолжительность : 6 м. 12 с.
Режим общего битрейта : Переменный
Общий поток : 699 Кбит/сек
Программа кодирования : Lavf55.33.100
Видео
Идентификатор : 2
Формат : AVC
Формат/Информация : Advanced Video Codec
Профиль формата : Baseline@L3.1
Параметр CABAC формата : Нет
Параметр ReFrames формата : 1 кадр
Идентификатор кодека : avc1
Идентификатор кодека/Информация : Advanced Video Coding
Продолжительность : 6 м. 12 с.
Битрейт : 600 Кбит/сек
Ширина : 1280 пикселей
Высота : 720 пикселей
Соотношение сторон : 16:9
Режим частоты кадров : Постоянный
Частота кадров : 23,976 кадра/сек
Цветовое пространство : YUV
Субдискретизация насыщенности : 4:2:0
Битовая глубина : 8 бит
Тип развёртки : Прогрессивная
Бит/(Пиксели*Кадры) : 0.027
Размер потока : 27,3 Мбайт (88%)
Библиотека кодирования : x264 core 140
Настройки программы : cabac=0 / ref=1 / deblock=1:0:0 / analyse=0x1:0x111 / me=hex / subme=10 / psy=1 / psy_rd=1.00:0.00 / mixed_ref=0 / me_range=16 / chroma_me=1 / trellis=2 / 8x8dct=0 / cqm=0 / deadzone=21,11 / fast_pskip=1 / chroma_qp_offset=-2 / threads=48 / lookahead_threads=4 / sliced_threads=0 / nr=0 / decimate=1 / interlaced=0 / bluray_compat=0 / constrained_intra=0 / bframes=0 / weightp=0 / keyint=90 / keyint_min=9 / scenecut=40 / intra_refresh=0 / rc_lookahead=40 / rc=abr / mbtree=1 / bitrate=600 / ratetol=1.0 / qcomp=0.60 / qpmin=0 / qpmax=69 / qpstep=4 / vbv_maxrate=1000 / vbv_bufsize=10000 / nal_hrd=none / filler=0 / ip_ratio=1.40 / aq=1:1.00
Язык : English
Аудио
Идентификатор : 1
Формат : AAC
Формат/Информация : Advanced Audio Codec
Профиль формата : LC
Идентификатор кодека : 40
Продолжительность : 6 м. 12 с.
Вид битрейта : Переменный
Битрейт : 80,0 Кбит/сек
Максимальный битрейт : 1000 Кбит/сек
Каналы : 2 канала
Расположение каналов : Front: L R
Частота : 48,0 КГц
Метод сжатия : С потерями
Размер потока : 3,56 Мбайт (11%)
Язык : English
Сайт universarium.org не позволяет (стандартными средствами) скачивать лекции. А после завершения курсов - даже просматривать их. Знания должны быть свободными!

Постеры

Соцсети

 

Статистика

Автор: Stepan
Добавлен: 07 апр 2018, 23:56
Размер: 3.23 ГБ
Размер: 3 472 089 229 байт
Сидеров: 0
Личеров: 0
Скачали: 0
Здоровье: 0%
Статус:
Скорость скачивания: 0 байт/сек
Скорость раздачи: 0 байт/сек
Последний сидер: Нет
Последний личер: Нет
Приватный: Нет (DHT включён)
Школьникам, студентам и педагогам Скачать торрент
Скачать торрент
[ Размер 261.96 КБ / Просмотров 0 ]

Поделиться



  • Похожие торренты
    Ответы
    Просмотры
    Последнее сообщение

Вернуться в Школьникам, студентам и педагогам