Сообщение

Видеоуроки по геометрии 7 класс [2012, Математика, Геомтрия, WEBRip, RUS] (Видеоурок)

Сообщение Stepan » 07 апр 2018, 23:57

Видеоуроки по геометрии 7 класс
Автор: MathLector
год:2012
Страна: Россия
Тематика: Математика, Геомтрия
Тип раздаваемого материала: Видеоурок
Продолжительность: 2:15:00
Язык: Русский
Перевод: Не требуется
Описание: В этих видеоуроках по геометрии рассказывается польный школьный курс геометрии за 7 класс. Объясняются все определения и доказываются все основные теоремы.
Качество видео: WebRip
Формат видео: MP4
Для видео - avc1 ,1280 x 718, 1148 x 720, 103kbps, 15 fps
Для аудио - AAC, 44100Hz, stereo, 125kbps
Полное имя : C:\Users\Desktop\Геометрия 7 Класс. Видеоуроки\01 математика геометрия отрезок прямая луч.mp4
Формат : MPEG-4
Профиль формата : Base Media / Version 2
Идентификатор кодека : mp42
Размер файла : 13,0 Мбайт
Продолжительность : 6 м. 22 с.
Режим общего битрейта : Переменный
Общий поток : 284 Кбит/сек
Дата кодирования : UTC 2012-08-28 01:19:16
Дата пометки : UTC 2012-08-28 01:19:16
Видео
Идентификатор : 1
Формат : AVC
Формат/Информация : Advanced Video Codec
Профиль формата : High@L3.1
Параметр CABAC формата : Да
Параметр ReFrames формата : 1 кадр
Идентификатор кодека : avc1
Идентификатор кодека/Информация : Advanced Video Coding
Продолжительность : 6 м. 22 с.
Битрейт : 90,0 Кбит/сек
Максимальный битрейт : 935 Кбит/сек
Ширина : 1148 пикселей
Высота : 720 пикселей
Соотношение сторон : 16:10
Режим частоты кадров : Постоянный
Частота кадров : 15,000 кадров/сек
Цветовое пространство : YUV
Субдискретизация насыщенности : 4:2:0
Битовая глубина : 8 бит
Тип развёртки : Прогрессивная
Бит/(Пиксели*Кадры) : 0.007
Размер потока : 4,11 Мбайт (32%)
Дата пометки : UTC 2012-08-28 01:19:16
Аудио
Идентификатор : 2
Формат : AAC
Формат/Информация : Advanced Audio Codec
Профиль формата : LC
Идентификатор кодека : 40
Продолжительность : 6 м. 22 с.
Вид битрейта : Переменный
Битрейт : 192 Кбит/сек
Максимальный битрейт : 202 Кбит/сек
Каналы : 2 канала
Расположение каналов : Front: L R
Частота : 44,1 КГц
Метод сжатия : С потерями
Размер потока : 8,76 Мбайт (68%)
Заголовок : IsoMedia File Produced by Camtasia Studio, 5-11-2011
Дата кодирования : UTC 2012-08-28 01:19:16
Дата пометки : UTC 2012-08-28 01:19:16

Постеры

Соцсети

 

Статистика

Автор: Stepan
Добавлен: 07 апр 2018, 23:57
Размер: 275.01 МБ
Размер: 288 371 706 байт
Сидеров: 0
Личеров: 0
Скачали: 0
Здоровье: 0%
Статус:
Скорость скачивания: 0 байт/сек
Скорость раздачи: 0 байт/сек
Последний сидер: Нет
Последний личер: Нет
Приватный: Нет (DHT включён)
Школьникам, студентам и педагогам Скачать торрент
Скачать торрент
[ Размер 13.65 КБ / Просмотров 0 ]

Поделиться



  • Похожие торренты
    Ответы
    Просмотры
    Последнее сообщение

Вернуться в Школьникам, студентам и педагогам