Сообщение

TTC VIDEO: Understanding the Brain [2008, лекции, DVDRip, ENG]

Сообщение Stepan » 07 апр 2018, 23:59

TTC VIDEO: Understanding the Brain
Год: 2008
Автор: Jeanette Norden
Издательство: The Teaching Company
Страна: США
Язык: английский
Перевод: нет
Субтитры: нет
Жанр: лекции
Продолжительность: 18:40:44
Описание:
Course No. 1580 (36 lectures
As you read this, your brain is alive with a flurry of activity, including:
* directing the movement of your eyes
* decoding the electrical impulses from your retina
* recognizing the pattern of words and phrases and extracting their meaning
* controlling your breathing, heart rate, and body temperature
* adjusting your posture
* screening out the buzz of background stimuli
Everything that goes on inside your body and every interaction you have with the outside world is controlled by your brain. It allows you to cope masterfully with your everyday environment. It is capable of producing breathtaking athletic feats, sublime works of art, and profound scientific insights. It also produces the enormous range of emotional responses that can take us from the depths of depression to the heights of euphoria.
Considering everything the brain does, how can this relatively small mass of tissue possibly be the source of our personalities, dreams, thoughts, sensations, utterances, and movements?
Understanding the Brain, a 36-lecture course by award-winning Professor Jeanette Norden of Vanderbilt University School of Medicine, takes you inside this astonishingly complex organ and shows you how it works, from the gross level of its organization to the molecular level of how cells in the brain communicate. With its combination of neurology, biology, and psychology, this course will help you understand how we perceive the world through our senses, how we move, how we learn and remember, and how emotions affect our thoughts and actions.
Solving the Mystery of the Brain
The ancient Egyptians discarded the brain during mummification while carefully preserving other organs; to them, the brain was of no importance. Starting with the Greek physician Hippocrates, however, observers began tracing more and more of our sensory, nervous, and intellectual activities to the brain—and eventually to specific regions of the brain.
The brain is still a mystery in many respects—for example, we still are unsure as to how consciousness is generated—but recent decades have seen unparalleled advances in understanding how the brain does what it does. In the last 50 years, an explosion of knowledge about the brain's structure and function has occurred. Scientists have performed amazing research by using tools such as MRIs and PET scanning to get a better grasp on deciphering the mysteries of how this important organ works.
Due to these technological advances, we can now pinpoint:
* where light that enters the eye is converted into the subjective experience of sight
* where pressure waves that reach the ear are processed into sound
* where fear is generated
* which areas of the brain are involved in spoken and written language
* where the deep chemistry of love is kindled
What You Will Learn
Understanding the Brain provides you with an in-depth view of the inner workings of your brain. Your tour starts with the organization of the central nervous system at the gross, cellular, and molecular levels, then investigates in detail how the brain accomplishes a host of tasks—from seeing and sleeping to performing music and constructing a personal identity.
* The Structure of the Brain: Lectures 1–11 cover the cellular structure and the overall layout of this intricate organ. You learn how the brain develops during gestation, and are introduced to the technical vocabulary that you will use throughout the course.
* Brain and Mind: Lectures 12–19 explore how the brain and mind are thought to be related by examining the sensory functions of sight, hearing, and bodily sensation. You analyze the motor system, which governs how movement is initiated and coordinated, and explore Parkinson's disease and its progressive impairment of movement.
* Higher-Order Cognitive Functions: Lectures 20–29 discuss the areas of the brain thought to be responsible for language, emotion, executive function, and cognition—abilities that, in large part, define us as humans. You look at the underlying neurological mechanisms and explore their role in various phenomena like depression, musical ability and appreciation, and drug use.
* Special Topics: Lectures 30–36 look at several subjects of universal interest. Are the brains of males and females different? How does the brain regulate sleep and dreaming? What is consciousness? And how can you understand the signs and symptoms of Alzheimer's disease?
Our insights into the functioning of the brain often come from cases where something has gone wrong, such as strokes, tumors, injuries, neurological diseases, and mental illnesses—pathologies that vividly demonstrate the distinct roles played by the various affected regions. An expert neuroscientist, Dr. Norden provides a fascinating presentation of these cases.
Know Your Mind
We now know that something important is always going on inside our brain and, as Understanding the Brain illustrates, if you know what to look for, you can observe specific aspects of your own brain in action:
* Vision: The "now you see it, now you don't" feeling you get when you see an illusion is your brain trying to interpret raw data from the eyes. Far from taking a picture of the world and sending it to the brain, the eyes actually transmit very little information; "seeing" is a creation of the brain.
* Thought: Sometimes, you can have trouble thinking after taking an antihistamine. This is because antihistamines do not just combat the effects of an allergy, they also block histamine as a neurotransmitter in the brain, altering your ability to think and process information.
* Motor skills: When you learn how to walk, ride a bicycle, knit, dance, or perform some other motor skill, you reach a point where all of a sudden you are able to coordinate the new movement. That is because specialized neurons in your brain's cerebellum are now firing in sequence.
* Emotion and memory: Think about doing your taxes. Does that thought elicit a particular emotion? We do not just remember something; our memories are colored with emotion. All of our experiences are influenced by previous experiences through complex loops in the brain's limbic system.
* Social bonding: Your feeling of well-being with your spouse or friends has a neurochemical basis. The neurotransmitter oxytocin is found in very high concentrations in the limbic systems of animals that bond socially.
* Consciousness: Sometimes, you can arrive at work with very little memory of the details of your journey; obviously you were not unconscious, but you were not fully aware either. This occurs when your brain is in "autopilot" mode—where it was in control without your being conscious of all that was happening around you.
Appreciate the Wonder of the Brain
As a researcher, Dr. Norden has participated in an ongoing scientific revolution. She is also a nationally recognized educator, singled out as one of the most effective teachers in America in What the Best College Teachers Do. Among Dr. Norden's special qualities cited in the book is this simple, but highly effective, approach to teaching: "Before she begins the first class in any semester, she thinks about the awe and excitement she felt the first time anyone explained the brain to her, and she considers how she can help her students achieve that same feeling."
You can share her consuming passion for the intricacies of the brain in this lively and engaging course, which Dr. Norden has designed specifically for those without a background in science. "All you need to bring is your own brain and a desire to learn," she says.
Thus equipped, you will explore a broad range of exciting topics in neuroscience. Above all, you will come away from Understanding the Brain with a deeper knowledge of how the brain is organized—and a feeling of wonder and appreciation for all that it accomplishes.
Available Exclusively on DVD
Because of the visual nature of the subject matter, this course is available only on DVD. It contains hundreds of images, animations, and on-screen text that support the professor's explanation of how our brains function.
1. Historical Underpinnings of Neuroscience
2. Central Nervous System—Gross Organization
3. Central Nervous System—Internal Organization
4. Central Nervous System—Subdivisions
5. Cortex—Lobes and Areas
6. Cortex—Sensory, Motor, and Association Areas
7. Central Nervous System—Development
8. Central Nervous System—Cellular Organization
9. Pathways and Synapses
10. Neurotransmitters
11. Stroke
12. The Visual System—The Eye
13. The Visual System—The Cortex
14. The Auditory System
15. The Somatosensory System
16. Agnosias
17. The Motor System—Voluntary Movement
18. The Motor System—Coordinated Movement
19. Parkinson's Disease
20. Language
21. The Limbic System—Anatomy
22. The Limbic System—Biochemistry
23. Depression
24. The Reward System—Anatomy
25. The Reward System—Drugs
26. Brain Plasticity
27. Emotion and Executive Function
28. Processing of Negative Emotions—Fear
29. Music and the Brain
30. Sexual Dimorphism of the Brain
31. Sleep and Dreaming
32. Consciousness and the Self
33. Alzheimer's Disease
34. Risk Factors for Alzheimer's Disease
35. Wellness and the Brain—Effects of Stress
36. Neuroscience—Looking Back and Looking Ahead
Качество: DVDRip
Формат: AVI
Видео кодек: XviD
Аудио кодек: MP3
Видео: 448x336 29.97fps 824Kbps
Аудио: 48000Hz mono 64Kbps
Код:
Код: Выделить всё
Общее
Полное имя                       : \TTC VIDEO - Understanding the Brain\01 - Historical Underpinnings of Neuroscience.avi
Формат                           : AVI
Формат/Информация                : Audio Video Interleave
Размер файла                     : 200 Мбайт
Продолжительность                : 31 м.
Общий поток                      : 886 Кбит/сек
Программа кодирования            : VirtualDubMod 1.5.4.1 (build 2178/release)
Библиотека кодирования           : VirtualDubMod build 2178/release
Видео
Идентификатор                    : 0
Формат                           : MPEG-4 Visual
Профиль формата                  : Advanced Simple@L5
Параметр BVOP формата            : 1
Параметр QPel формата            : Нет
Параметр GMC формата             : Без точки перехода
Параметр матрицы формата         : Default (H.263)
Режим смешивания                 : Сжатый битовый поток
Идентификатор кодека             : XVID
Идентификатор кодека/Подсказка   : XviD
Продолжительность                : 31 м.
Битрейт                          : 821 Кбит/сек
Ширина                           : 496 пикселей
Высота                           : 368 пикселей
Соотношение сторон               : 4:3
Частота кадров                   : 29,970 кадров/сек
Цветовое пространство            : YUV
Субдискретизация насыщенности    : 4:2:0
Битовая глубина                  : 8 бит
Тип развёртки                    : Прогрессивная
Метод сжатия                     : С потерями
Бит/(Пиксели*Кадры)              : 0.150
Размер потока                    : 185 Мбайт (93%)
Библиотека кодирования           : XviD 1.2.0.dev47 (UTC 2006-11-01)
Аудио
Идентификатор                    : 1
Формат                           : MPEG Audio
Версия формата                   : Version 1
Профиль формата                  : Layer 3
Идентификатор кодека             : 55
Идентификатор кодека/Подсказка   : MP3
Продолжительность                : 31 м.
Вид битрейта                     : Постоянный
Битрейт                          : 56,0 Кбит/сек
Каналы                           : 1 канал
Частота                          : 32,0 КГц
Метод сжатия                     : С потерями
Размер потока                    : 12,6 Мбайт (6%)
Выравнивание                     : Соединение по промежуткам
Продолжительность промежутка     : 67  мс. (2,00 видеокадра)
Время предзагрузки промежутка    : 504  мс.
Библиотека кодирования           : LAME3.97
Настройки программы              : -m m -V 4 -q 2 -lowpass 15 -b 56
Общее
Полное имя                       : \TTC VIDEO - Understanding the Brain\02 - Central Nervous System - Gross Organization.avi
Формат                           : AVI
Формат/Информация                : Audio Video Interleave
Размер файла                     : 200 Мбайт
Продолжительность                : 31 м.
Общий поток                      : 878 Кбит/сек
Программа кодирования            : VirtualDubMod 1.5.4.1 (build 2178/release)
Библиотека кодирования           : VirtualDubMod build 2178/release
Видео
Идентификатор                    : 0
Формат                           : MPEG-4 Visual
Профиль формата                  : Advanced Simple@L5
Параметр BVOP формата            : 1
Параметр QPel формата            : Нет
Параметр GMC формата             : Без точки перехода
Параметр матрицы формата         : Default (H.263)
Режим смешивания                 : Сжатый битовый поток
Идентификатор кодека             : XVID
Идентификатор кодека/Подсказка   : XviD
Продолжительность                : 31 м.
Битрейт                          : 813 Кбит/сек
Ширина                           : 496 пикселей
Высота                           : 368 пикселей
Соотношение сторон               : 4:3
Частота кадров                   : 29,970 кадров/сек
Цветовое пространство            : YUV
Субдискретизация насыщенности    : 4:2:0
Битовая глубина                  : 8 бит
Тип развёртки                    : Прогрессивная
Метод сжатия                     : С потерями
Бит/(Пиксели*Кадры)              : 0.149
Размер потока                    : 185 Мбайт (93%)
Библиотека кодирования           : XviD 1.2.0.dev47 (UTC 2006-11-01)
Аудио
Идентификатор                    : 1
Формат                           : MPEG Audio
Версия формата                   : Version 1
Профиль формата                  : Layer 3
Идентификатор кодека             : 55
Идентификатор кодека/Подсказка   : MP3
Продолжительность                : 31 м.
Вид битрейта                     : Постоянный
Битрейт                          : 56,0 Кбит/сек
Каналы                           : 1 канал
Частота                          : 32,0 КГц
Метод сжатия                     : С потерями
Размер потока                    : 12,8 Мбайт (6%)
Выравнивание                     : Соединение по промежуткам
Продолжительность промежутка     : 67  мс. (2,00 видеокадра)
Время предзагрузки промежутка    : 504  мс.
Библиотека кодирования           : LAME3.97
Настройки программы              : -m m -V 4 -q 2 -lowpass 15 -b 56
Общее
Полное имя                       : \TTC VIDEO - Understanding the Brain\03 - Central Nervous System - Internal Organization.avi
Формат                           : AVI
Формат/Информация                : Audio Video Interleave
Размер файла                     : 200 Мбайт
Продолжительность                : 32 м.
Общий поток                      : 873 Кбит/сек
Программа кодирования            : VirtualDubMod 1.5.4.1 (build 2178/release)
Библиотека кодирования           : VirtualDubMod build 2178/release
Видео
Идентификатор                    : 0
Формат                           : MPEG-4 Visual
Профиль формата                  : Advanced Simple@L5
Параметр BVOP формата            : 1
Параметр QPel формата            : Нет
Параметр GMC формата             : Без точки перехода
Параметр матрицы формата         : Default (H.263)
Режим смешивания                 : Сжатый битовый поток
Идентификатор кодека             : XVID
Идентификатор кодека/Подсказка   : XviD
Продолжительность                : 32 м.
Битрейт                          : 808 Кбит/сек
Ширина                           : 512 пикселей
Высота                           : 384 пикселя
Соотношение сторон               : 4:3
Частота кадров                   : 29,970 кадров/сек
Цветовое пространство            : YUV
Субдискретизация насыщенности    : 4:2:0
Битовая глубина                  : 8 бит
Тип развёртки                    : Прогрессивная
Метод сжатия                     : С потерями
Бит/(Пиксели*Кадры)              : 0.137
Размер потока                    : 185 Мбайт (93%)
Библиотека кодирования           : XviD 1.2.0.dev47 (UTC 2006-11-01)
Аудио
Идентификатор                    : 1
Формат                           : MPEG Audio
Версия формата                   : Version 1
Профиль формата                  : Layer 3
Идентификатор кодека             : 55
Идентификатор кодека/Подсказка   : MP3
Продолжительность                : 32 м.
Вид битрейта                     : Постоянный
Битрейт                          : 56,0 Кбит/сек
Каналы                           : 1 канал
Частота                          : 32,0 КГц
Метод сжатия                     : С потерями
Размер потока                    : 12,8 Мбайт (6%)
Выравнивание                     : Соединение по промежуткам
Продолжительность промежутка     : 67  мс. (2,00 видеокадра)
Время предзагрузки промежутка    : 504  мс.
Библиотека кодирования           : LAME3.97
Настройки программы              : -m m -V 4 -q 2 -lowpass 15 -b 56
Общее
Полное имя                       : \TTC VIDEO - Understanding the Brain\04 - Central Nervous System - Subdivisions.avi
Формат                           : AVI
Формат/Информация                : Audio Video Interleave
Размер файла                     : 199 Мбайт
Продолжительность                : 31 м.
Общий поток                      : 886 Кбит/сек
Программа кодирования            : VirtualDubMod 1.5.4.1 (build 2178/release)
Библиотека кодирования           : VirtualDubMod build 2178/release
Видео
Идентификатор                    : 0
Формат                           : MPEG-4 Visual
Профиль формата                  : Advanced Simple@L5
Параметр BVOP формата            : 1
Параметр QPel формата            : Нет
Параметр GMC формата             : Без точки перехода
Параметр матрицы формата         : Default (H.263)
Режим смешивания                 : Сжатый битовый поток
Идентификатор кодека             : XVID
Идентификатор кодека/Подсказка   : XviD
Продолжительность                : 31 м.
Битрейт                          : 821 Кбит/сек
Ширина                           : 480 пикселей
Высота                           : 368 пикселей
Соотношение сторон               : 4:3
Частота кадров                   : 29,970 кадров/сек
Цветовое пространство            : YUV
Субдискретизация насыщенности    : 4:2:0
Битовая глубина                  : 8 бит
Тип развёртки                    : Прогрессивная
Метод сжатия                     : С потерями
Бит/(Пиксели*Кадры)              : 0.155
Размер потока                    : 185 Мбайт (93%)
Библиотека кодирования           : XviD 1.2.0.dev47 (UTC 2006-11-01)
Аудио
Идентификатор                    : 1
Формат                           : MPEG Audio
Версия формата                   : Version 1
Профиль формата                  : Layer 3
Идентификатор кодека             : 55
Идентификатор кодека/Подсказка   : MP3
Продолжительность                : 31 м.
Вид битрейта                     : Постоянный
Битрейт                          : 56,0 Кбит/сек
Каналы                           : 1 канал
Частота                          : 32,0 КГц
Метод сжатия                     : С потерями
Размер потока                    : 12,6 Мбайт (6%)
Выравнивание                     : Соединение по промежуткам
Продолжительность промежутка     : 67  мс. (2,00 видеокадра)
Время предзагрузки промежутка    : 504  мс.
Библиотека кодирования           : LAME3.97
Настройки программы              : -m m -V 4 -q 2 -lowpass 15 -b 56
Общее
Полное имя                       : \TTC VIDEO - Understanding the Brain\05 - Cortex - Lobes and Areas.avi
Формат                           : AVI
Формат/Информация                : Audio Video Interleave
Размер файла                     : 200 Мбайт
Продолжительность                : 29 м.
Общий поток                      : 944 Кбит/сек
Программа кодирования            : VirtualDubMod 1.5.4.1 (build 2178/release)
Библиотека кодирования           : VirtualDubMod build 2178/release
Видео
Идентификатор                    : 0
Формат                           : MPEG-4 Visual
Профиль формата                  : Advanced Simple@L5
Параметр BVOP формата            : 1
Параметр QPel формата            : Нет
Параметр GMC формата             : Без точки перехода
Параметр матрицы формата         : Default (H.263)
Режим смешивания                 : Сжатый битовый поток
Идентификатор кодека             : XVID
Идентификатор кодека/Подсказка   : XviD
Продолжительность                : 29 м.
Битрейт                          : 879 Кбит/сек
Ширина                           : 512 пикселей
Высота                           : 384 пикселя
Соотношение сторон               : 4:3
Частота кадров                   : 29,970 кадров/сек
Цветовое пространство            : YUV
Субдискретизация насыщенности    : 4:2:0
Битовая глубина                  : 8 бит
Тип развёртки                    : Прогрессивная
Метод сжатия                     : С потерями
Бит/(Пиксели*Кадры)              : 0.149
Размер потока                    : 186 Мбайт (93%)
Библиотека кодирования           : XviD 1.2.0.dev47 (UTC 2006-11-01)
Аудио
Идентификатор                    : 1
Формат                           : MPEG Audio
Версия формата                   : Version 1
Профиль формата                  : Layer 3
Идентификатор кодека             : 55
Идентификатор кодека/Подсказка   : MP3
Продолжительность                : 29 м.
Вид битрейта                     : Постоянный
Битрейт                          : 56,0 Кбит/сек
Каналы                           : 1 канал
Частота                          : 32,0 КГц
Метод сжатия                     : С потерями
Размер потока                    : 11,9 Мбайт (6%)
Выравнивание                     : Соединение по промежуткам
Продолжительность промежутка     : 67  мс. (2,00 видеокадра)
Время предзагрузки промежутка    : 504  мс.
Библиотека кодирования           : LAME3.97
Настройки программы              : -m m -V 4 -q 2 -lowpass 15 -b 56
Общее
Полное имя                       : \TTC VIDEO - Understanding the Brain\06 - Cortex - Sensory, Motor, and Association Areas.avi
Формат                           : AVI
Формат/Информация                : Audio Video Interleave
Размер файла                     : 199 Мбайт
Продолжительность                : 31 м.
Общий поток                      : 892 Кбит/сек
Программа кодирования            : VirtualDubMod 1.5.4.1 (build 2178/release)
Библиотека кодирования           : VirtualDubMod build 2178/release
Видео
Идентификатор                    : 0
Формат                           : MPEG-4 Visual
Профиль формата                  : Advanced Simple@L5
Параметр BVOP формата            : 1
Параметр QPel формата            : Нет
Параметр GMC формата             : Без точки перехода
Параметр матрицы формата         : Default (H.263)
Режим смешивания                 : Сжатый битовый поток
Идентификатор кодека             : XVID
Идентификатор кодека/Подсказка   : XviD
Продолжительность                : 31 м.
Битрейт                          : 828 Кбит/сек
Ширина                           : 512 пикселей
Высота                           : 384 пикселя
Соотношение сторон               : 4:3
Частота кадров                   : 29,970 кадров/сек
Цветовое пространство            : YUV
Субдискретизация насыщенности    : 4:2:0
Битовая глубина                  : 8 бит
Тип развёртки                    : Прогрессивная
Метод сжатия                     : С потерями
Бит/(Пиксели*Кадры)              : 0.140
Размер потока                    : 185 Мбайт (93%)
Библиотека кодирования           : XviD 1.2.0.dev47 (UTC 2006-11-01)
Аудио
Идентификатор                    : 1
Формат                           : MPEG Audio
Версия формата                   : Version 1
Профиль формата                  : Layer 3
Идентификатор кодека             : 55
Идентификатор кодека/Подсказка   : MP3
Продолжительность                : 31 м.
Вид битрейта                     : Постоянный
Битрейт                          : 56,0 Кбит/сек
Каналы                           : 1 канал
Частота                          : 32,0 КГц
Метод сжатия                     : С потерями
Размер потока                    : 12,5 Мбайт (6%)
Выравнивание                     : Соединение по промежуткам
Продолжительность промежутка     : 67  мс. (2,00 видеокадра)
Время предзагрузки промежутка    : 504  мс.
Библиотека кодирования           : LAME3.97
Настройки программы              : -m m -V 4 -q 2 -lowpass 15 -b 56
Общее
Полное имя                       : \TTC VIDEO - Understanding the Brain\07 - Central Nervous System - Development.avi
Формат                           : AVI
Формат/Информация                : Audio Video Interleave
Размер файла                     : 200 Мбайт
Продолжительность                : 32 м.
Общий поток                      : 873 Кбит/сек
Программа кодирования            : VirtualDubMod 1.5.4.1 (build 2178/release)
Библиотека кодирования           : VirtualDubMod build 2178/release
Видео
Идентификатор                    : 0
Формат                           : MPEG-4 Visual
Профиль формата                  : Advanced Simple@L5
Параметр BVOP формата            : 1
Параметр QPel формата            : Нет
Параметр GMC формата             : Без точки перехода
Параметр матрицы формата         : Default (H.263)
Режим смешивания                 : Сжатый битовый поток
Идентификатор кодека             : XVID
Идентификатор кодека/Подсказка   : XviD
Продолжительность                : 32 м.
Битрейт                          : 808 Кбит/сек
Ширина                           : 512 пикселей
Высота                           : 384 пикселя
Соотношение сторон               : 4:3
Частота кадров                   : 29,970 кадров/сек
Цветовое пространство            : YUV
Субдискретизация насыщенности    : 4:2:0
Битовая глубина                  : 8 бит
Тип развёртки                    : Прогрессивная
Метод сжатия                     : С потерями
Бит/(Пиксели*Кадры)              : 0.137
Размер потока                    : 185 Мбайт (93%)
Библиотека кодирования           : XviD 1.2.0.dev47 (UTC 2006-11-01)
Аудио
Идентификатор                    : 1
Формат                           : MPEG Audio
Версия формата                   : Version 1
Профиль формата                  : Layer 3
Идентификатор кодека             : 55
Идентификатор кодека/Подсказка   : MP3
Продолжительность                : 32 м.
Вид битрейта                     : Постоянный
Битрейт                          : 56,0 Кбит/сек
Каналы                           : 1 канал
Частота                          : 32,0 КГц
Метод сжатия                     : С потерями
Размер потока                    : 12,8 Мбайт (6%)
Выравнивание                     : Соединение по промежуткам
Продолжительность промежутка     : 67  мс. (2,00 видеокадра)
Время предзагрузки промежутка    : 504  мс.
Библиотека кодирования           : LAME3.97
Настройки программы              : -m m -V 4 -q 2 -lowpass 15 -b 56
Общее
Полное имя                       : \TTC VIDEO - Understanding the Brain\08 - Central Nervous System - Cellular Organization.avi
Формат                           : AVI
Формат/Информация                : Audio Video Interleave
Размер файла                     : 200 Мбайт
Продолжительность                : 31 м.
Общий поток                      : 888 Кбит/сек
Программа кодирования            : VirtualDubMod 1.5.4.1 (build 2178/release)
Библиотека кодирования           : VirtualDubMod build 2178/release
Видео
Идентификатор                    : 0
Формат                           : MPEG-4 Visual
Профиль формата                  : Advanced Simple@L5
Параметр BVOP формата            : 1
Параметр QPel формата            : Нет
Параметр GMC формата             : Без точки перехода
Параметр матрицы формата         : Default (H.263)
Режим смешивания                 : Сжатый битовый поток
Идентификатор кодека             : XVID
Идентификатор кодека/Подсказка   : XviD
Продолжительность                : 31 м.
Битрейт                          : 823 Кбит/сек
Ширина                           : 512 пикселей
Высота                           : 384 пикселя
Соотношение сторон               : 4:3
Частота кадров                   : 29,970 кадров/сек
Цветовое пространство            : YUV
Субдискретизация насыщенности    : 4:2:0
Битовая глубина                  : 8 бит
Тип развёртки                    : Прогрессивная
Метод сжатия                     : С потерями
Бит/(Пиксели*Кадры)              : 0.140
Размер потока                    : 185 Мбайт (93%)
Библиотека кодирования           : XviD 1.2.0.dev47 (UTC 2006-11-01)
Аудио
Идентификатор                    : 1
Формат                           : MPEG Audio
Версия формата                   : Version 1
Профиль формата                  : Layer 3
Идентификатор кодека             : 55
Идентификатор кодека/Подсказка   : MP3
Продолжительность                : 31 м.
Вид битрейта                     : Постоянный
Битрейт                          : 56,0 Кбит/сек
Каналы                           : 1 канал
Частота                          : 32,0 КГц
Метод сжатия                     : С потерями
Размер потока                    : 12,6 Мбайт (6%)
Выравнивание                     : Соединение по промежуткам
Продолжительность промежутка     : 67  мс. (2,00 видеокадра)
Время предзагрузки промежутка    : 504  мс.
Библиотека кодирования           : LAME3.97
Настройки программы              : -m m -V 4 -q 2 -lowpass 15 -b 56
Общее
Полное имя                       : \TTC VIDEO - Understanding the Brain\09 - Pathways and Synapses.avi
Формат                           : AVI
Формат/Информация                : Audio Video Interleave
Размер файла                     : 200 Мбайт
Продолжительность                : 29 м.
Общий поток                      : 944 Кбит/сек
Программа кодирования            : VirtualDubMod 1.5.4.1 (build 2178/release)
Библиотека кодирования           : VirtualDubMod build 2178/release
Видео
Идентификатор                    : 0
Формат                           : MPEG-4 Visual
Профиль формата                  : Advanced Simple@L5
Параметр BVOP формата            : 1
Параметр QPel формата            : Нет
Параметр GMC формата             : Без точки перехода
Параметр матрицы формата         : Default (H.263)
Режим смешивания                 : Сжатый битовый поток
Идентификатор кодека             : XVID
Идентификатор кодека/Подсказка   : XviD
Продолжительность                : 29 м.
Битрейт                          : 879 Кбит/сек
Ширина                           : 512 пикселей
Высота                           : 384 пикселя
Соотношение сторон               : 4:3
Частота кадров                   : 29,970 кадров/сек
Цветовое пространство            : YUV
Субдискретизация насыщенности    : 4:2:0
Битовая глубина                  : 8 бит
Тип развёртки                    : Прогрессивная
Метод сжатия                     : С потерями
Бит/(Пиксели*Кадры)              : 0.149
Размер потока                    : 186 Мбайт (93%)
Библиотека кодирования           : XviD 1.2.0.dev47 (UTC 2006-11-01)
Аудио
Идентификатор                    : 1
Формат                           : MPEG Audio
Версия формата                   : Version 1
Профиль формата                  : Layer 3
Идентификатор кодека             : 55
Идентификатор кодека/Подсказка   : MP3
Продолжительность                : 29 м.
Вид битрейта                     : Постоянный
Битрейт                          : 56,0 Кбит/сек
Каналы                           : 1 канал
Частота                          : 32,0 КГц
Метод сжатия                     : С потерями
Размер потока                    : 11,9 Мбайт (6%)
Выравнивание                     : Соединение по промежуткам
Продолжительность промежутка     : 67  мс. (2,00 видеокадра)
Время предзагрузки промежутка    : 504  мс.
Библиотека кодирования           : LAME3.97
Настройки программы              : -m m -V 4 -q 2 -lowpass 15 -b 56
Общее
Полное имя                       : \TTC VIDEO - Understanding the Brain\10 - Neurotransmitter.avi
Формат                           : AVI
Формат/Информация                : Audio Video Interleave
Размер файла                     : 199 Мбайт
Продолжительность                : 30 м.
Общий поток                      : 915 Кбит/сек
Программа кодирования            : VirtualDubMod 1.5.4.1 (build 2178/release)
Библиотека кодирования           : VirtualDubMod build 2178/release
Видео
Идентификатор                    : 0
Формат                           : MPEG-4 Visual
Профиль формата                  : Advanced Simple@L5
Параметр BVOP формата            : 1
Параметр QPel формата            : Нет
Параметр GMC формата             : Без точки перехода
Параметр матрицы формата         : Default (H.263)
Режим смешивания                 : Сжатый битовый поток
Идентификатор кодека             : XVID
Идентификатор кодека/Подсказка   : XviD
Продолжительность                : 30 м.
Битрейт                          : 850 Кбит/сек
Ширина                           : 512 пикселей
Высота                           : 384 пикселя
Соотношение сторон               : 4:3
Частота кадров                   : 29,970 кадров/сек
Цветовое пространство            : YUV
Субдискретизация насыщенности    : 4:2:0
Битовая глубина                  : 8 бит
Тип развёртки                    : Прогрессивная
Метод сжатия                     : С потерями
Бит/(Пиксели*Кадры)              : 0.144
Размер потока                    : 185 Мбайт (93%)
Библиотека кодирования           : XviD 1.2.0.dev47 (UTC 2006-11-01)
Аудио
Идентификатор                    : 1
Формат                           : MPEG Audio
Версия формата                   : Version 1
Профиль формата                  : Layer 3
Идентификатор кодека             : 55
Идентификатор кодека/Подсказка   : MP3
Продолжительность                : 30 м.
Вид битрейта                     : Постоянный
Битрейт                          : 56,0 Кбит/сек
Каналы                           : 1 канал
Частота                          : 32,0 КГц
Метод сжатия                     : С потерями
Размер потока                    : 12,2 Мбайт (6%)
Выравнивание                     : Соединение по промежуткам
Продолжительность промежутка     : 67  мс. (2,00 видеокадра)
Время предзагрузки промежутка    : 504  мс.
Библиотека кодирования           : LAME3.97
Настройки программы              : -m m -V 4 -q 2 -lowpass 15 -b 56
Общее
Полное имя                       : \TTC VIDEO - Understanding the Brain\11 - Stroke.avi
Формат                           : AVI
Формат/Информация                : Audio Video Interleave
Размер файла                     : 199 Мбайт
Продолжительность                : 30 м.
Общий поток                      : 900 Кбит/сек
Программа кодирования            : VirtualDubMod 1.5.4.1 (build 2178/release)
Библиотека кодирования           : VirtualDubMod build 2178/release
Видео
Идентификатор                    : 0
Формат                           : MPEG-4 Visual
Профиль формата                  : Advanced Simple@L5
Параметр BVOP формата            : 1
Параметр QPel формата            : Нет
Параметр GMC формата             : Без точки перехода
Параметр матрицы формата         : Default (H.263)
Режим смешивания                 : Сжатый битовый поток
Идентификатор кодека             : XVID
Идентификатор кодека/Подсказка   : XviD
Продолжительность                : 30 м.
Битрейт                          : 835 Кбит/сек
Ширина                           : 512 пикселей
Высота                           : 384 пикселя
Соотношение сторон               : 4:3
Частота кадров                   : 29,970 кадров/сек
Цветовое пространство            : YUV
Субдискретизация насыщенности    : 4:2:0
Битовая глубина                  : 8 бит
Тип развёртки                    : Прогрессивная
Метод сжатия                     : С потерями
Бит/(Пиксели*Кадры)              : 0.142
Размер потока                    : 185 Мбайт (93%)
Библиотека кодирования           : XviD 1.2.0.dev47 (UTC 2006-11-01)
Аудио
Идентификатор                    : 1
Формат                           : MPEG Audio
Версия формата                   : Version 1
Профиль формата                  : Layer 3
Идентификатор кодека             : 55
Идентификатор кодека/Подсказка   : MP3
Продолжительность                : 30 м.
Вид битрейта                     : Постоянный
Битрейт                          : 56,0 Кбит/сек
Каналы                           : 1 канал
Частота                          : 32,0 КГц
Метод сжатия                     : С потерями
Размер потока                    : 12,4 Мбайт (6%)
Выравнивание                     : Соединение по промежуткам
Продолжительность промежутка     : 67  мс. (2,00 видеокадра)
Время предзагрузки промежутка    : 504  мс.
Библиотека кодирования           : LAME3.97
Настройки программы              : -m m -V 4 -q 2 -lowpass 15 -b 56
Общее
Полное имя                       : \TTC VIDEO - Understanding the Brain\12 - Visual System - The Eye.avi
Формат                           : AVI
Формат/Информация                : Audio Video Interleave
Размер файла                     : 200 Мбайт
Продолжительность                : 29 м.
Общий поток                      : 934 Кбит/сек
Программа кодирования            : VirtualDubMod 1.5.4.1 (build 2178/release)
Библиотека кодирования           : VirtualDubMod build 2178/release
Видео
Идентификатор                    : 0
Формат                           : MPEG-4 Visual
Профиль формата                  : Advanced Simple@L5
Параметр BVOP формата            : 1
Параметр QPel формата            : Нет
Параметр GMC формата             : Без точки перехода
Параметр матрицы формата         : Default (H.263)
Режим смешивания                 : Сжатый битовый поток
Идентификатор кодека             : XVID
Идентификатор кодека/Подсказка   : XviD
Продолжительность                : 29 м.
Битрейт                          : 869 Кбит/сек
Ширина                           : 512 пикселей
Высота                           : 384 пикселя
Соотношение сторон               : 4:3
Частота кадров                   : 29,970 кадров/сек
Цветовое пространство            : YUV
Субдискретизация насыщенности    : 4:2:0
Битовая глубина                  : 8 бит
Тип развёртки                    : Прогрессивная
Метод сжатия                     : С потерями
Бит/(Пиксели*Кадры)              : 0.148
Размер потока                    : 186 Мбайт (93%)
Библиотека кодирования           : XviD 1.2.0.dev47 (UTC 2006-11-01)
Аудио
Идентификатор                    : 1
Формат                           : MPEG Audio
Версия формата                   : Version 1
Профиль формата                  : Layer 3
Идентификатор кодека             : 55
Идентификатор кодека/Подсказка   : MP3
Продолжительность                : 29 м.
Вид битрейта                     : Постоянный
Битрейт                          : 56,0 Кбит/сек
Каналы                           : 1 канал
Частота                          : 32,0 КГц
Метод сжатия                     : С потерями
Размер потока                    : 12,0 Мбайт (6%)
Выравнивание                     : Соединение по промежуткам
Продолжительность промежутка     : 67  мс. (2,00 видеокадра)
Время предзагрузки промежутка    : 504  мс.
Библиотека кодирования           : LAME3.97
Настройки программы              : -m m -V 4 -q 2 -lowpass 15 -b 56
Общее
Полное имя                       : \TTC VIDEO - Understanding the Brain\13 - Visual System - The Cortex.avi
Формат                           : AVI
Формат/Информация                : Audio Video Interleave
Размер файла                     : 200 Мбайт
Продолжительность                : 29 м.
Общий поток                      : 933 Кбит/сек
Программа кодирования            : VirtualDubMod 1.5.4.1 (build 2178/release)
Библиотека кодирования           : VirtualDubMod build 2178/release
Видео
Идентификатор                    : 0
Формат                           : MPEG-4 Visual
Профиль формата                  : Advanced Simple@L5
Параметр BVOP формата            : 1
Параметр QPel формата            : Нет
Параметр GMC формата             : Без точки перехода
Параметр матрицы формата         : Default (H.263)
Режим смешивания                 : Сжатый битовый поток
Идентификатор кодека             : XVID
Идентификатор кодека/Подсказка   : XviD
Продолжительность                : 29 м.
Битрейт                          : 860 Кбит/сек
Ширина                           : 512 пикселей
Высота                           : 384 пикселя
Соотношение сторон               : 4:3
Частота кадров                   : 29,970 кадров/сек
Цветовое пространство            : YUV
Субдискретизация насыщенности    : 4:2:0
Битовая глубина                  : 8 бит
Тип развёртки                    : Прогрессивная
Метод сжатия                     : С потерями
Бит/(Пиксели*Кадры)              : 0.146
Размер потока                    : 184 Мбайт (92%)
Библиотека кодирования           : XviD 1.2.0.dev47 (UTC 2006-11-01)
Аудио
Идентификатор                    : 1
Формат                           : MPEG Audio
Версия формата                   : Version 1
Профиль формата                  : Layer 3
Идентификатор кодека             : 55
Идентификатор кодека/Подсказка   : MP3
Продолжительность                : 29 м.
Вид битрейта                     : Постоянный
Битрейт                          : 64,0 Кбит/сек
Каналы                           : 1 канал
Частота                          : 48,0 КГц
Метод сжатия                     : С потерями
Размер потока                    : 13,7 Мбайт (7%)
Выравнивание                     : Соединение по промежуткам
Продолжительность промежутка     : 67  мс. (2,00 видеокадра)
Время предзагрузки промежутка    : 504  мс.
Библиотека кодирования           : LAME3.97
Настройки программы              : -m m -V 4 -q 2 -lowpass 16.5 -b 64
Общее
Полное имя                       : \TTC VIDEO - Understanding the Brain\14 - Auditory System.avi
Формат                           : AVI
Формат/Информация                : Audio Video Interleave
Размер файла                     : 200 Мбайт
Продолжительность                : 29 м.
Общий поток                      : 936 Кбит/сек
Программа кодирования            : VirtualDubMod 1.5.4.1 (build 2178/release)
Библиотека кодирования           : VirtualDubMod build 2178/release
Видео
Идентификатор                    : 0
Формат                           : MPEG-4 Visual
Профиль формата                  : Advanced Simple@L5
Параметр BVOP формата            : 1
Параметр QPel формата            : Нет
Параметр GMC формата             : Без точки перехода
Параметр матрицы формата         : Default (H.263)
Режим смешивания                 : Сжатый битовый поток
Идентификатор кодека             : XVID
Идентификатор кодека/Подсказка   : XviD
Продолжительность                : 29 м.
Битрейт                          : 863 Кбит/сек
Ширина                           : 512 пикселей
Высота                           : 384 пикселя
Соотношение сторон               : 4:3
Частота кадров                   : 29,970 кадров/сек
Цветовое пространство            : YUV
Субдискретизация насыщенности    : 4:2:0
Битовая глубина                  : 8 бит
Тип развёртки                    : Прогрессивная
Метод сжатия                     : С потерями
Бит/(Пиксели*Кадры)              : 0.146
Размер потока                    : 184 Мбайт (92%)
Библиотека кодирования           : XviD 1.2.0.dev47 (UTC 2006-11-01)
Аудио
Идентификатор                    : 1
Формат                           : MPEG Audio
Версия формата                   : Version 1
Профиль формата                  : Layer 3
Идентификатор кодека             : 55
Идентификатор кодека/Подсказка   : MP3
Продолжительность                : 29 м.
Вид битрейта                     : Постоянный
Битрейт                          : 64,0 Кбит/сек
Каналы                           : 1 канал
Частота                          : 48,0 КГц
Метод сжатия                     : С потерями
Размер потока                    : 13,7 Мбайт (7%)
Выравнивание                     : Соединение по промежуткам
Продолжительность промежутка     : 67  мс. (2,00 видеокадра)
Время предзагрузки промежутка    : 504  мс.
Библиотека кодирования           : LAME3.97
Настройки программы              : -m m -V 4 -q 2 -lowpass 16.5 -b 64
Общее
Полное имя                       : \TTC VIDEO - Understanding the Brain\15 - Somatosensory System.avi
Формат                           : AVI
Формат/Информация                : Audio Video Interleave
Размер файла                     : 199 Мбайт
Продолжительность                : 31 м.
Общий поток                      : 875 Кбит/сек
Программа кодирования            : VirtualDubMod 1.5.4.1 (build 2178/release)
Библиотека кодирования           : VirtualDubMod build 2178/release
Видео
Идентификатор                    : 0
Формат                           : MPEG-4 Visual
Профиль формата                  : Advanced Simple@L5
Параметр BVOP формата            : 1
Параметр QPel формата            : Нет
Параметр GMC формата             : Без точки перехода
Параметр матрицы формата         : Default (H.263)
Режим смешивания                 : Сжатый битовый поток
Идентификатор кодека             : XVID
Идентификатор кодека/Подсказка   : XviD
Продолжительность                : 31 м.
Битрейт                          : 802 Кбит/сек
Ширина                           : 512 пикселей
Высота                           : 384 пикселя
Соотношение сторон               : 4:3
Частота кадров                   : 29,970 кадров/сек
Цветовое пространство            : YUV
Субдискретизация насыщенности    : 4:2:0
Битовая глубина                  : 8 бит
Тип развёртки                    : Прогрессивная
Метод сжатия                     : С потерями
Бит/(Пиксели*Кадры)              : 0.136
Размер потока                    : 183 Мбайт (92%)
Библиотека кодирования           : XviD 1.2.0.dev47 (UTC 2006-11-01)
Аудио
Идентификатор                    : 1
Формат                           : MPEG Audio
Версия формата                   : Version 1
Профиль формата                  : Layer 3
Идентификатор кодека             : 55
Идентификатор кодека/Подсказка   : MP3
Продолжительность                : 31 м.
Вид битрейта                     : Постоянный
Битрейт                          : 64,0 Кбит/сек
Каналы                           : 1 канал
Частота                          : 48,0 КГц
Метод сжатия                     : С потерями
Размер потока                    : 14,6 Мбайт (7%)
Выравнивание                     : Соединение по промежуткам
Продолжительность промежутка     : 67  мс. (2,00 видеокадра)
Время предзагрузки промежутка    : 504  мс.
Библиотека кодирования           : LAME3.97
Настройки программы              : -m m -V 4 -q 2 -lowpass 16.5 -b 64
Общее
Полное имя                       : \TTC VIDEO - Understanding the Brain\16 - Agnosias.avi
Формат                           : AVI
Формат/Информация                : Audio Video Interleave
Размер файла                     : 200 Мбайт
Продолжительность                : 31 м.
Общий поток                      : 879 Кбит/сек
Программа кодирования            : VirtualDubMod 1.5.4.1 (build 2178/release)
Библиотека кодирования           : VirtualDubMod build 2178/release
Видео
Идентификатор                    : 0
Формат                           : MPEG-4 Visual
Профиль формата                  : Advanced Simple@L5
Параметр BVOP формата            : 1
Параметр QPel формата            : Нет
Параметр GMC формата             : Без точки перехода
Параметр матрицы формата         : Default (H.263)
Режим смешивания                 : Сжатый битовый поток
Идентификатор кодека             : XVID
Идентификатор кодека/Подсказка   : XviD
Продолжительность                : 31 м.
Битрейт                          : 806 Кбит/сек
Ширина                           : 464 пикселя
Высота                           : 352 пикселя
Соотношение сторон               : 4:3
Частота кадров                   : 29,970 кадров/сек
Цветовое пространство            : YUV
Субдискретизация насыщенности    : 4:2:0
Битовая глубина                  : 8 бит
Тип развёртки                    : Прогрессивная
Метод сжатия                     : С потерями
Бит/(Пиксели*Кадры)              : 0.165
Размер потока                    : 183 Мбайт (92%)
Библиотека кодирования           : XviD 1.2.0.dev47 (UTC 2006-11-01)
Аудио
Идентификатор                    : 1
Формат                           : MPEG Audio
Версия формата                   : Version 1
Профиль формата                  : Layer 3
Идентификатор кодека             : 55
Идентификатор кодека/Подсказка   : MP3
Продолжительность                : 31 м.
Вид битрейта                     : Постоянный
Битрейт                          : 64,0 Кбит/сек
Каналы                           : 1 канал
Частота                          : 48,0 КГц
Метод сжатия                     : С потерями
Размер потока                    : 14,5 Мбайт (7%)
Выравнивание                     : Соединение по промежуткам
Продолжительность промежутка     : 67  мс. (2,00 видеокадра)
Время предзагрузки промежутка    : 504  мс.
Библиотека кодирования           : LAME3.97
Настройки программы              : -m m -V 4 -q 2 -lowpass 16.5 -b 64
Общее
Полное имя                       : \TTC VIDEO - Understanding the Brain\17 - Motor System - Voluntary Movement.avi
Формат                           : AVI
Формат/Информация                : Audio Video Interleave
Размер файла                     : 200 Мбайт
Продолжительность                : 31 м.
Общий поток                      : 899 Кбит/сек
Программа кодирования            : VirtualDubMod 1.5.4.1 (build 2178/release)
Библиотека кодирования           : VirtualDubMod build 2178/release
Видео
Идентификатор                    : 0
Формат                           : MPEG-4 Visual
Профиль формата                  : Advanced Simple@L5
Параметр BVOP формата            : 1
Параметр QPel формата            : Нет
Параметр GMC формата             : Без точки перехода
Параметр матрицы формата         : Default (H.263)
Режим смешивания                 : Сжатый битовый поток
Идентификатор кодека             : XVID
Идентификатор кодека/Подсказка   : XviD
Продолжительность                : 31 м.
Битрейт                          : 826 Кбит/сек
Ширина                           : 512 пикселей
Высота                           : 384 пикселя
Соотношение сторон               : 4:3
Частота кадров                   : 29,970 кадров/сек
Цветовое пространство            : YUV
Субдискретизация насыщенности    : 4:2:0
Битовая глубина                  : 8 бит
Тип развёртки                    : Прогрессивная
Метод сжатия                     : С потерями
Бит/(Пиксели*Кадры)              : 0.140
Размер потока                    : 184 Мбайт (92%)
Библиотека кодирования           : XviD 1.2.0.dev47 (UTC 2006-11-01)
Аудио
Идентификатор                    : 1
Формат                           : MPEG Audio
Версия формата                   : Version 1
Профиль формата                  : Layer 3
Идентификатор кодека             : 55
Идентификатор кодека/Подсказка   : MP3
Продолжительность                : 31 м.
Вид битрейта                     : Постоянный
Битрейт                          : 64,0 Кбит/сек
Каналы                           : 1 канал
Частота                          : 48,0 КГц
Метод сжатия                     : С потерями
Размер потока                    : 14,2 Мбайт (7%)
Выравнивание                     : Соединение по промежуткам
Продолжительность промежутка     : 67  мс. (2,00 видеокадра)
Время предзагрузки промежутка    : 504  мс.
Библиотека кодирования           : LAME3.97
Настройки программы              : -m m -V 4 -q 2 -lowpass 16.5 -b 64
Общее
Полное имя                       : \TTC VIDEO - Understanding the Brain\18 - Motor System - Coordinated Movement.avi
Формат                           : AVI
Формат/Информация                : Audio Video Interleave
Размер файла                     : 200 Мбайт
Продолжительность                : 32 м.
Общий поток                      : 859 Кбит/сек
Программа кодирования            : VirtualDubMod 1.5.4.1 (build 2178/release)
Библиотека кодирования           : VirtualDubMod build 2178/release
Видео
Идентификатор                    : 0
Формат                           : MPEG-4 Visual
Профиль формата                  : Advanced Simple@L5
Параметр BVOP формата            : 1
Параметр QPel формата            : Нет
Параметр GMC формата             : Без точки перехода
Параметр матрицы формата         : Default (H.263)
Режим смешивания                 : Сжатый битовый поток
Идентификатор кодека             : XVID
Идентификатор кодека/Подсказка   : XviD
Продолжительность                : 32 м.
Битрейт                          : 787 Кбит/сек
Ширина                           : 464 пикселя
Высота                           : 352 пикселя
Соотношение сторон               : 4:3
Частота кадров                   : 29,970 кадров/сек
Цветовое пространство            : YUV
Субдискретизация насыщенности    : 4:2:0
Битовая глубина                  : 8 бит
Тип развёртки                    : Прогрессивная
Метод сжатия                     : С потерями
Бит/(Пиксели*Кадры)              : 0.161
Размер потока                    : 183 Мбайт (92%)
Библиотека кодирования           : XviD 1.2.0.dev47 (UTC 2006-11-01)
Аудио
Идентификатор                    : 1
Формат                           : MPEG Audio
Версия формата                   : Version 1
Профиль формата                  : Layer 3
Идентификатор кодека             : 55
Идентификатор кодека/Подсказка   : MP3
Продолжительность                : 32 м.
Вид битрейта                     : Постоянный
Битрейт                          : 64,0 Кбит/сек
Каналы                           : 1 канал
Частота                          : 48,0 КГц
Метод сжатия                     : С потерями
Размер потока                    : 14,9 Мбайт (7%)
Выравнивание                     : Соединение по промежуткам
Продолжительность промежутка     : 67  мс. (2,00 видеокадра)
Время предзагрузки промежутка    : 504  мс.
Библиотека кодирования           : LAME3.97
Настройки программы              : -m m -V 4 -q 2 -lowpass 16.5 -b 64
Общее
Полное имя                       : \TTC VIDEO - Understanding the Brain\19 - Parkinson's Disease.avi
Формат                           : AVI
Формат/Информация                : Audio Video Interleave
Размер файла                     : 200 Мбайт
Продолжительность                : 33 м.
Общий поток                      : 838 Кбит/сек
Программа кодирования            : VirtualDubMod 1.5.4.1 (build 2178/release)
Библиотека кодирования           : VirtualDubMod build 2178/release
Видео
Идентификатор                    : 0
Формат                           : MPEG-4 Visual
Профиль формата                  : Advanced Simple@L5
Параметр BVOP формата            : 1
Параметр QPel формата            : Нет
Параметр GMC формата             : Без точки перехода
Параметр матрицы формата         : Default (H.263)
Режим смешивания                 : Сжатый битовый поток
Идентификатор кодека             : XVID
Идентификатор кодека/Подсказка   : XviD
Продолжительность                : 33 м.
Битрейт                          : 765 Кбит/сек
Ширина                           : 432 пикселя
Высота                           : 320 пикселей
Соотношение сторон               : 4:3
Частота кадров                   : 29,970 кадров/сек
Цветовое пространство            : YUV
Субдискретизация насыщенности    : 4:2:0
Битовая глубина                  : 8 бит
Тип развёртки                    : Прогрессивная
Метод сжатия                     : С потерями
Бит/(Пиксели*Кадры)              : 0.185
Размер потока                    : 183 Мбайт (91%)
Библиотека кодирования           : XviD 1.2.0.dev47 (UTC 2006-11-01)
Аудио
Идентификатор                    : 1
Формат                           : MPEG Audio
Версия формата                   : Version 1
Профиль формата                  : Layer 3
Идентификатор кодека             : 55
Идентификатор кодека/Подсказка   : MP3
Продолжительность                : 33 м.
Вид битрейта                     : Постоянный
Битрейт                          : 64,0 Кбит/сек
Каналы                           : 1 канал
Частота                          : 48,0 КГц
Метод сжатия                     : С потерями
Размер потока                    : 15,3 Мбайт (8%)
Выравнивание                     : Соединение по промежуткам
Продолжительность промежутка     : 67  мс. (2,00 видеокадра)
Время предзагрузки промежутка    : 504  мс.
Библиотека кодирования           : LAME3.97
Настройки программы              : -m m -V 4 -q 2 -lowpass 16.5 -b 64
Общее
Полное имя                       : \TTC VIDEO - Understanding the Brain\20 - Language.avi
Формат                           : AVI
Формат/Информация                : Audio Video Interleave
Размер файла                     : 200 Мбайт
Продолжительность                : 31 м.
Общий поток                      : 893 Кбит/сек
Программа кодирования            : VirtualDubMod 1.5.4.1 (build 2178/release)
Библиотека кодирования           : VirtualDubMod build 2178/release
Видео
Идентификатор                    : 0
Формат                           : MPEG-4 Visual
Профиль формата                  : Advanced Simple@L5
Параметр BVOP формата            : 1
Параметр QPel формата            : Нет
Параметр GMC формата             : Без точки перехода
Параметр матрицы формата         : Default (H.263)
Режим смешивания                 : Сжатый битовый поток
Идентификатор кодека             : XVID
Идентификатор кодека/Подсказка   : XviD
Продолжительность                : 31 м.
Битрейт                          : 820 Кбит/сек
Ширина                           : 432 пикселя
Высота                           : 320 пикселей
Соотношение сторон               : 4:3
Частота кадров                   : 29,970 кадров/сек
Цветовое пространство            : YUV
Субдискретизация насыщенности    : 4:2:0
Битовая глубина                  : 8 бит
Тип развёртки                    : Прогрессивная
Метод сжатия                     : С потерями
Бит/(Пиксели*Кадры)              : 0.198
Размер потока                    : 184 Мбайт (92%)
Библиотека кодирования           : XviD 1.2.0.dev47 (UTC 2006-11-01)
Аудио
Идентификатор                    : 1
Формат                           : MPEG Audio
Версия формата                   : Version 1
Профиль формата                  : Layer 3
Идентификатор кодека             : 55
Идентификатор кодека/Подсказка   : MP3
Продолжительность                : 31 м.
Вид битрейта                     : Постоянный
Битрейт                          : 64,0 Кбит/сек
Каналы                           : 1 канал
Частота                          : 48,0 КГц
Метод сжатия                     : С потерями
Размер потока                    : 14,3 Мбайт (7%)
Выравнивание                     : Соединение по промежуткам
Продолжительность промежутка     : 67  мс. (2,00 видеокадра)
Время предзагрузки промежутка    : 504  мс.
Библиотека кодирования           : LAME3.97
Настройки программы              : -m m -V 4 -q 2 -lowpass 16.5 -b 64
Общее
Полное имя                       : \TTC VIDEO - Understanding the Brain\21 - Limbic System - Anatomy.avi
Формат                           : AVI
Формат/Информация                : Audio Video Interleave
Размер файла                     : 199 Мбайт
Продолжительность                : 31 м.
Общий поток                      : 896 Кбит/сек
Программа кодирования            : VirtualDubMod 1.5.4.1 (build 2178/release)
Библиотека кодирования           : VirtualDubMod build 2178/release
Видео
Идентификатор                    : 0
Формат                           : MPEG-4 Visual
Профиль формата                  : Advanced Simple@L5
Параметр BVOP формата            : 1
Параметр QPel формата            : Нет
Параметр GMC формата             : Без точки перехода
Параметр матрицы формата         : Default (H.263)
Режим смешивания                 : Сжатый битовый поток
Идентификатор кодека             : XVID
Идентификатор кодека/Подсказка   : XviD
Продолжительность                : 31 м.
Битрейт                          : 823 Кбит/сек
Ширина                           : 512 пикселей
Высота                           : 384 пикселя
Соотношение сторон               : 4:3
Частота кадров                   : 29,970 кадров/сек
Цветовое пространство            : YUV
Субдискретизация насыщенности    : 4:2:0
Битовая глубина                  : 8 бит
Тип развёртки                    : Прогрессивная
Метод сжатия                     : С потерями
Бит/(Пиксели*Кадры)              : 0.140
Размер потока                    : 183 Мбайт (92%)
Библиотека кодирования           : XviD 1.2.0.dev47 (UTC 2006-11-01)
Аудио
Идентификатор                    : 1
Формат                           : MPEG Audio
Версия формата                   : Version 1
Профиль формата                  : Layer 3
Идентификатор кодека             : 55
Идентификатор кодека/Подсказка   : MP3
Продолжительность                : 31 м.
Вид битрейта                     : Постоянный
Битрейт                          : 64,0 Кбит/сек
Каналы                           : 1 канал
Частота                          : 48,0 КГц
Метод сжатия                     : С потерями
Размер потока                    : 14,2 Мбайт (7%)
Выравнивание                     : Соединение по промежуткам
Продолжительность промежутка     : 67  мс. (2,00 видеокадра)
Время предзагрузки промежутка    : 504  мс.
Библиотека кодирования           : LAME3.97
Настройки программы              : -m m -V 4 -q 2 -lowpass 16.5 -b 64
Общее
Полное имя                       : \TTC VIDEO - Understanding the Brain\22 - Limbic System - Biochemistry.avi
Формат                           : AVI
Формат/Информация                : Audio Video Interleave
Размер файла                     : 200 Мбайт
Продолжительность                : 30 м.
Общий поток                      : 912 Кбит/сек
Программа кодирования            : VirtualDubMod 1.5.4.1 (build 2178/release)
Библиотека кодирования           : VirtualDubMod build 2178/release
Видео
Идентификатор                    : 0
Формат                           : MPEG-4 Visual
Профиль формата                  : Advanced Simple@L5
Параметр BVOP формата            : 1
Параметр QPel формата            : Нет
Параметр GMC формата             : Без точки перехода
Параметр матрицы формата         : Default (H.263)
Режим смешивания                 : Сжатый битовый поток
Идентификатор кодека             : XVID
Идентификатор кодека/Подсказка   : XviD
Продолжительность                : 30 м.
Битрейт                          : 839 Кбит/сек
Ширина                           : 464 пикселя
Высота                           : 352 пикселя
Соотношение сторон               : 4:3
Частота кадров                   : 29,970 кадров/сек
Цветовое пространство            : YUV
Субдискретизация насыщенности    : 4:2:0
Битовая глубина                  : 8 бит
Тип развёртки                    : Прогрессивная
Метод сжатия                     : С потерями
Бит/(Пиксели*Кадры)              : 0.171
Размер потока                    : 184 Мбайт (92%)
Библиотека кодирования           : XviD 1.2.0.dev47 (UTC 2006-11-01)
Аудио
Идентификатор                    : 1
Формат                           : MPEG Audio
Версия формата                   : Version 1
Профиль формата                  : Layer 3
Идентификатор кодека             : 55
Идентификатор кодека/Подсказка   : MP3
Продолжительность                : 30 м.
Вид битрейта                     : Постоянный
Битрейт                          : 64,0 Кбит/сек
Каналы                           : 1 канал
Частота                          : 48,0 КГц
Метод сжатия                     : С потерями
Размер потока                    : 14,0 Мбайт (7%)
Выравнивание                     : Соединение по промежуткам
Продолжительность промежутка     : 67  мс. (2,00 видеокадра)
Время предзагрузки промежутка    : 504  мс.
Библиотека кодирования           : LAME3.97
Настройки программы              : -m m -V 4 -q 2 -lowpass 16.5 -b 64
Общее
Полное имя                       : \TTC VIDEO - Understanding the Brain\23 - Depression.avi
Формат                           : AVI
Формат/Информация                : Audio Video Interleave
Размер файла                     : 200 Мбайт
Продолжительность                : 30 м.
Общий поток                      : 914 Кбит/сек
Программа кодирования            : VirtualDubMod 1.5.4.1 (build 2178/release)
Библиотека кодирования           : VirtualDubMod build 2178/release
Видео
Идентификатор                    : 0
Формат                           : MPEG-4 Visual
Профиль формата                  : Advanced Simple@L5
Параметр BVOP формата            : 1
Параметр QPel формата            : Нет
Параметр GMC формата             : Без точки перехода
Параметр матрицы формата         : Default (H.263)
Режим смешивания                 : Сжатый битовый поток
Идентификатор кодека             : XVID
Идентификатор кодека/Подсказка   : XviD
Продолжительность                : 30 м.
Битрейт                          : 841 Кбит/сек
Ширина                           : 432 пикселя
Высота                           : 320 пикселей
Соотношение сторон               : 4:3
Частота кадров                   : 29,970 кадров/сек
Цветовое пространство            : YUV
Субдискретизация насыщенности    : 4:2:0
Битовая глубина                  : 8 бит
Тип развёртки                    : Прогрессивная
Метод сжатия                     : С потерями
Бит/(Пиксели*Кадры)              : 0.203
Размер потока                    : 184 Мбайт (92%)
Библиотека кодирования           : XviD 1.2.0.dev47 (UTC 2006-11-01)
Аудио
Идентификатор                    : 1
Формат                           : MPEG Audio
Версия формата                   : Version 1
Профиль формата                  : Layer 3
Идентификатор кодека             : 55
Идентификатор кодека/Подсказка   : MP3
Продолжительность                : 30 м.
Вид битрейта                     : Постоянный
Битрейт                          : 64,0 Кбит/сек
Каналы                           : 1 канал
Частота                          : 48,0 КГц
Метод сжатия                     : С потерями
Размер потока                    : 14,0 Мбайт (7%)
Выравнивание                     : Соединение по промежуткам
Продолжительность промежутка     : 67  мс. (2,00 видеокадра)
Время предзагрузки промежутка    : 504  мс.
Библиотека кодирования           : LAME3.97
Настройки программы              : -m m -V 4 -q 2 -lowpass 16.5 -b 64
Общее
Полное имя                       : \TTC VIDEO - Understanding the Brain\24 - Anatomy.avi
Формат                           : AVI
Формат/Информация                : Audio Video Interleave
Размер файла                     : 200 Мбайт
Продолжительность                : 30 м.
Общий поток                      : 907 Кбит/сек
Программа кодирования            : VirtualDubMod 1.5.4.1 (build 2178/release)
Библиотека кодирования           : VirtualDubMod build 2178/release
Видео
Идентификатор                    : 0
Формат                           : MPEG-4 Visual
Профиль формата                  : Advanced Simple@L5
Параметр BVOP формата            : 1
Параметр QPel формата            : Нет
Параметр GMC формата             : Без точки перехода
Параметр матрицы формата         : Default (H.263)
Режим смешивания                 : Сжатый битовый поток
Идентификатор кодека             : XVID
Идентификатор кодека/Подсказка   : XviD
Продолжительность                : 30 м.
Битрейт                          : 834 Кбит/сек
Ширина                           : 448 пикселей
Высота                           : 336 пикселей
Соотношение сторон               : 4:3
Частота кадров                   : 29,970 кадров/сек
Цветовое пространство            : YUV
Субдискретизация насыщенности    : 4:2:0
Битовая глубина                  : 8 бит
Тип развёртки                    : Прогрессивная
Метод сжатия                     : С потерями
Бит/(Пиксели*Кадры)              : 0.185
Размер потока                    : 184 Мбайт (92%)
Библиотека кодирования           : XviD 1.2.0.dev47 (UTC 2006-11-01)
Аудио
Идентификатор                    : 1
Формат                           : MPEG Audio
Версия формата                   : Version 1
Профиль формата                  : Layer 3
Идентификатор кодека             : 55
Идентификатор кодека/Подсказка   : MP3
Продолжительность                : 30 м.
Вид битрейта                     : Постоянный
Битрейт                          : 64,0 Кбит/сек
Каналы                           : 1 канал
Частота                          : 48,0 КГц
Метод сжатия                     : С потерями
Размер потока                    : 14,1 Мбайт (7%)
Выравнивание                     : Соединение по промежуткам
Продолжительность промежутка     : 67  мс. (2,00 видеокадра)
Время предзагрузки промежутка    : 504  мс.
Библиотека кодирования           : LAME3.97
Настройки программы              : -m m -V 4 -q 2 -lowpass 16.5 -b 64
Общее
Полное имя                       : \TTC VIDEO - Understanding the Brain\25 - Reward System - Drugs.avi
Формат                           : AVI
Формат/Информация                : Audio Video Interleave
Размер файла                     : 200 Мбайт
Продолжительность                : 31 м.
Общий поток                      : 892 Кбит/сек
Программа кодирования            : VirtualDubMod 1.5.4.1 (build 2178/release)
Библиотека кодирования           : VirtualDubMod build 2178/release
Видео
Идентификатор                    : 0
Формат                           : MPEG-4 Visual
Профиль формата                  : Advanced Simple@L5
Параметр BVOP формата            : 1
Параметр QPel формата            : Нет
Параметр GMC формата             : Без точки перехода
Параметр матрицы формата         : Default (H.263)
Режим смешивания                 : Сжатый битовый поток
Идентификатор кодека             : XVID
Идентификатор кодека/Подсказка   : XviD
Продолжительность                : 31 м.
Битрейт                          : 819 Кбит/сек
Ширина                           : 464 пикселя
Высота                           : 352 пикселя
Соотношение сторон               : 4:3
Частота кадров                   : 29,970 кадров/сек
Цветовое пространство            : YUV
Субдискретизация насыщенности    : 4:2:0
Битовая глубина                  : 8 бит
Тип развёртки                    : Прогрессивная
Метод сжатия                     : С потерями
Бит/(Пиксели*Кадры)              : 0.167
Размер потока                    : 184 Мбайт (92%)
Библиотека кодирования           : XviD 1.2.0.dev47 (UTC 2006-11-01)
Аудио
Идентификатор                    : 1
Формат                           : MPEG Audio
Версия формата                   : Version 1
Профиль формата                  : Layer 3
Идентификатор кодека             : 55
Идентификатор кодека/Подсказка   : MP3
Продолжительность                : 31 м.
Вид битрейта                     : Постоянный
Битрейт                          : 64,0 Кбит/сек
Каналы                           : 1 канал
Частота                          : 48,0 КГц
Метод сжатия                     : С потерями
Размер потока                    : 14,3 Мбайт (7%)
Выравнивание                     : Соединение по промежуткам
Продолжительность промежутка     : 67  мс. (2,00 видеокадра)
Время предзагрузки промежутка    : 504  мс.
Библиотека кодирования           : LAME3.97
Настройки программы              : -m m -V 4 -q 2 -lowpass 16.5 -b 64
Общее
Полное имя                       : \TTC VIDEO - Understanding the Brain\26 - Brain Plasticity.avi
Формат                           : AVI
Формат/Информация                : Audio Video Interleave
Размер файла                     : 200 Мбайт
Продолжительность                : 31 м.
Общий поток                      : 892 Кбит/сек
Программа кодирования            : VirtualDubMod 1.5.4.1 (build 2178/release)
Библиотека кодирования           : VirtualDubMod build 2178/release
Видео
Идентификатор                    : 0
Формат                           : MPEG-4 Visual
Профиль формата                  : Advanced Simple@L5
Параметр BVOP формата            : 1
Параметр QPel формата            : Нет
Параметр GMC формата             : Без точки перехода
Параметр матрицы формата         : Default (H.263)
Режим смешивания                 : Сжатый битовый поток
Идентификатор кодека             : XVID
Идентификатор кодека/Подсказка   : XviD
Продолжительность                : 31 м.
Битрейт                          : 819 Кбит/сек
Ширина                           : 512 пикселей
Высота                           : 384 пикселя
Соотношение сторон               : 4:3
Частота кадров                   : 29,970 кадров/сек
Цветовое пространство            : YUV
Субдискретизация насыщенности    : 4:2:0
Битовая глубина                  : 8 бит
Тип развёртки                    : Прогрессивная
Метод сжатия                     : С потерями
Бит/(Пиксели*Кадры)              : 0.139
Размер потока                    : 183 Мбайт (92%)
Библиотека кодирования           : XviD 1.2.0.dev47 (UTC 2006-11-01)
Аудио
Идентификатор                    : 1
Формат                           : MPEG Audio
Версия формата                   : Version 1
Профиль формата                  : Layer 3
Идентификатор кодека             : 55
Идентификатор кодека/Подсказка   : MP3
Продолжительность                : 31 м.
Вид битрейта                     : Постоянный
Битрейт                          : 64,0 Кбит/сек
Каналы                           : 1 канал
Частота                          : 48,0 КГц
Метод сжатия                     : С потерями
Размер потока                    : 14,3 Мбайт (7%)
Выравнивание                     : Соединение по промежуткам
Продолжительность промежутка     : 67  мс. (2,00 видеокадра)
Время предзагрузки промежутка    : 504  мс.
Библиотека кодирования           : LAME3.97
Настройки программы              : -m m -V 4 -q 2 -lowpass 16.5 -b 64
Общее
Полное имя                       : \TTC VIDEO - Understanding the Brain\27 - Emotion and Executive Functions.avi
Формат                           : AVI
Формат/Информация                : Audio Video Interleave
Размер файла                     : 200 Мбайт
Продолжительность                : 30 м.
Общий поток                      : 909 Кбит/сек
Программа кодирования            : VirtualDubMod 1.5.4.1 (build 2178/release)
Библиотека кодирования           : VirtualDubMod build 2178/release
Видео
Идентификатор                    : 0
Формат                           : MPEG-4 Visual
Профиль формата                  : Advanced Simple@L5
Параметр BVOP формата            : 1
Параметр QPel формата            : Нет
Параметр GMC формата             : Без точки перехода
Параметр матрицы формата         : Default (H.263)
Режим смешивания                 : Сжатый битовый поток
Идентификатор кодека             : XVID
Идентификатор кодека/Подсказка   : XviD
Продолжительность                : 30 м.
Битрейт                          : 836 Кбит/сек
Ширина                           : 464 пикселя
Высота                           : 352 пикселя
Соотношение сторон               : 4:3
Частота кадров                   : 29,970 кадров/сек
Цветовое пространство            : YUV
Субдискретизация насыщенности    : 4:2:0
Битовая глубина                  : 8 бит
Тип развёртки                    : Прогрессивная
Метод сжатия                     : С потерями
Бит/(Пиксели*Кадры)              : 0.171
Размер потока                    : 184 Мбайт (92%)
Библиотека кодирования           : XviD 1.2.0.dev47 (UTC 2006-11-01)
Аудио
Идентификатор                    : 1
Формат                           : MPEG Audio
Версия формата                   : Version 1
Профиль формата                  : Layer 3
Идентификатор кодека             : 55
Идентификатор кодека/Подсказка   : MP3
Продолжительность                : 30 м.
Вид битрейта                     : Постоянный
Битрейт                          : 64,0 Кбит/сек
Каналы                           : 1 канал
Частота                          : 48,0 КГц
Метод сжатия                     : С потерями
Размер потока                    : 14,1 Мбайт (7%)
Выравнивание                     : Соединение по промежуткам
Продолжительность промежутка     : 67  мс. (2,00 видеокадра)
Время предзагрузки промежутка    : 504  мс.
Библиотека кодирования           : LAME3.97
Настройки программы              : -m m -V 4 -q 2 -lowpass 16.5 -b 64
Общее
Полное имя                       : \TTC VIDEO - Understanding the Brain\28 - Processing of Negative Emotions - Fear.avi
Формат                           : AVI
Формат/Информация                : Audio Video Interleave
Размер файла                     : 200 Мбайт
Продолжительность                : 30 м.
Общий поток                      : 904 Кбит/сек
Программа кодирования            : VirtualDubMod 1.5.4.1 (build 2178/release)
Библиотека кодирования           : VirtualDubMod build 2178/release
Видео
Идентификатор                    : 0
Формат                           : MPEG-4 Visual
Профиль формата                  : Advanced Simple@L5
Параметр BVOP формата            : 1
Параметр QPel формата            : Нет
Параметр GMC формата             : Без точки перехода
Параметр матрицы формата         : Default (H.263)
Режим смешивания                 : Сжатый битовый поток
Идентификатор кодека             : XVID
Идентификатор кодека/Подсказка   : XviD
Продолжительность                : 30 м.
Битрейт                          : 831 Кбит/сек
Ширина                           : 480 пикселей
Высота                           : 368 пикселей
Соотношение сторон               : 4:3
Частота кадров                   : 29,970 кадров/сек
Цветовое пространство            : YUV
Субдискретизация насыщенности    : 4:2:0
Битовая глубина                  : 8 бит
Тип развёртки                    : Прогрессивная
Метод сжатия                     : С потерями
Бит/(Пиксели*Кадры)              : 0.157
Размер потока                    : 183 Мбайт (92%)
Библиотека кодирования           : XviD 1.2.0.dev47 (UTC 2006-11-01)
Аудио
Идентификатор                    : 1
Формат                           : MPEG Audio
Версия формата                   : Version 1
Профиль формата                  : Layer 3
Идентификатор кодека             : 55
Идентификатор кодека/Подсказка   : MP3
Продолжительность                : 30 м.
Вид битрейта                     : Постоянный
Битрейт                          : 64,0 Кбит/сек
Каналы                           : 1 канал
Частота                          : 48,0 КГц
Метод сжатия                     : С потерями
Размер потока                    : 14,1 Мбайт (7%)
Выравнивание                     : Соединение по промежуткам
Продолжительность промежутка     : 67  мс. (2,00 видеокадра)
Время предзагрузки промежутка    : 504  мс.
Библиотека кодирования           : LAME3.97
Настройки программы              : -m m -V 4 -q 2 -lowpass 16.5 -b 64
Общее
Полное имя                       : \TTC VIDEO - Understanding the Brain\29 - Music and the Brain.avi
Формат                           : AVI
Формат/Информация                : Audio Video Interleave
Размер файла                     : 200 Мбайт
Продолжительность                : 31 м.
Общий поток                      : 902 Кбит/сек
Программа кодирования            : VirtualDubMod 1.5.4.1 (build 2178/release)
Библиотека кодирования           : VirtualDubMod build 2178/release
Видео
Идентификатор                    : 0
Формат                           : MPEG-4 Visual
Профиль формата                  : Advanced Simple@L5
Параметр BVOP формата            : 1
Параметр QPel формата            : Нет
Параметр GMC формата             : Без точки перехода
Параметр матрицы формата         : Default (H.263)
Режим смешивания                 : Сжатый битовый поток
Идентификатор кодека             : XVID
Идентификатор кодека/Подсказка   : XviD
Продолжительность                : 30 м.
Битрейт                          : 829 Кбит/сек
Ширина                           : 464 пикселя
Высота                           : 352 пикселя
Соотношение сторон               : 4:3
Частота кадров                   : 29,970 кадров/сек
Цветовое пространство            : YUV
Субдискретизация насыщенности    : 4:2:0
Битовая глубина                  : 8 бит
Тип развёртки                    : Прогрессивная
Метод сжатия                     : С потерями
Бит/(Пиксели*Кадры)              : 0.169
Размер потока                    : 184 Мбайт (92%)
Библиотека кодирования           : XviD 1.2.0.dev47 (UTC 2006-11-01)
Аудио
Идентификатор                    : 1
Формат                           : MPEG Audio
Версия формата                   : Version 1
Профиль формата                  : Layer 3
Идентификатор кодека             : 55
Идентификатор кодека/Подсказка   : MP3
Продолжительность                : 31 м.
Вид битрейта                     : Постоянный
Битрейт                          : 64,0 Кбит/сек
Каналы                           : 1 канал
Частота                          : 48,0 КГц
Метод сжатия                     : С потерями
Размер потока                    : 14,2 Мбайт (7%)
Выравнивание                     : Соединение по промежуткам
Продолжительность промежутка     : 67  мс. (2,00 видеокадра)
Время предзагрузки промежутка    : 504  мс.
Библиотека кодирования           : LAME3.97
Настройки программы              : -m m -V 4 -q 2 -lowpass 16.5 -b 64
Общее
Полное имя                       : \TTC VIDEO - Understanding the Brain\30 - Sexual Dimorphism of the Brain.avi
Формат                           : AVI
Формат/Информация                : Audio Video Interleave
Размер файла                     : 200 Мбайт
Продолжительность                : 32 м.
Общий поток                      : 848 Кбит/сек
Программа кодирования            : VirtualDubMod 1.5.4.1 (build 2178/release)
Библиотека кодирования           : VirtualDubMod build 2178/release
Видео
Идентификатор                    : 0
Формат                           : MPEG-4 Visual
Профиль формата                  : Advanced Simple@L5
Параметр BVOP формата            : 1
Параметр QPel формата            : Нет
Параметр GMC формата             : Без точки перехода
Параметр матрицы формата         : Default (H.263)
Режим смешивания                 : Сжатый битовый поток
Идентификатор кодека             : XVID
Идентификатор кодека/Подсказка   : XviD
Продолжительность                : 32 м.
Битрейт                          : 775 Кбит/сек
Ширина                           : 480 пикселей
Высота                           : 368 пикселей
Соотношение сторон               : 4:3
Частота кадров                   : 29,970 кадров/сек
Цветовое пространство            : YUV
Субдискретизация насыщенности    : 4:2:0
Битовая глубина                  : 8 бит
Тип развёртки                    : Прогрессивная
Метод сжатия                     : С потерями
Бит/(Пиксели*Кадры)              : 0.146
Размер потока                    : 182 Мбайт (91%)
Библиотека кодирования           : XviD 1.2.0.dev47 (UTC 2006-11-01)
Аудио
Идентификатор                    : 1
Формат                           : MPEG Audio
Версия формата                   : Version 1
Профиль формата                  : Layer 3
Идентификатор кодека             : 55
Идентификатор кодека/Подсказка   : MP3
Продолжительность                : 32 м.
Вид битрейта                     : Постоянный
Битрейт                          : 64,0 Кбит/сек
Каналы                           : 1 канал
Частота                          : 48,0 КГц
Метод сжатия                     : С потерями
Размер потока                    : 15,1 Мбайт (8%)
Выравнивание                     : Соединение по промежуткам
Продолжительность промежутка     : 67  мс. (2,00 видеокадра)
Время предзагрузки промежутка    : 504  мс.
Библиотека кодирования           : LAME3.97
Настройки программы              : -m m -V 4 -q 2 -lowpass 16.5 -b 64
Общее
Полное имя                       : \TTC VIDEO - Understanding the Brain\31 - Sleep and Dreaming.avi
Формат                           : AVI
Формат/Информация                : Audio Video Interleave
Размер файла                     : 200 Мбайт
Продолжительность                : 32 м.
Общий поток                      : 867 Кбит/сек
Программа кодирования            : VirtualDubMod 1.5.4.1 (build 2178/release)
Библиотека кодирования           : VirtualDubMod build 2178/release
Видео
Идентификатор                    : 0
Формат                           : MPEG-4 Visual
Профиль формата                  : Advanced Simple@L5
Параметр BVOP формата            : 1
Параметр QPel формата            : Нет
Параметр GMC формата             : Без точки перехода
Параметр матрицы формата         : Default (H.263)
Режим смешивания                 : Сжатый битовый поток
Идентификатор кодека             : XVID
Идентификатор кодека/Подсказка   : XviD
Продолжительность                : 32 м.
Битрейт                          : 794 Кбит/сек
Ширина                           : 480 пикселей
Высота                           : 368 пикселей
Соотношение сторон               : 4:3
Частота кадров                   : 29,970 кадров/сек
Цветовое пространство            : YUV
Субдискретизация насыщенности    : 4:2:0
Битовая глубина                  : 8 бит
Тип развёртки                    : Прогрессивная
Метод сжатия                     : С потерями
Бит/(Пиксели*Кадры)              : 0.150
Размер потока                    : 183 Мбайт (92%)
Библиотека кодирования           : XviD 1.2.0.dev47 (UTC 2006-11-01)
Аудио
Идентификатор                    : 1
Формат                           : MPEG Audio
Версия формата                   : Version 1
Профиль формата                  : Layer 3
Идентификатор кодека             : 55
Идентификатор кодека/Подсказка   : MP3
Продолжительность                : 32 м.
Вид битрейта                     : Постоянный
Битрейт                          : 64,0 Кбит/сек
Каналы                           : 1 канал
Частота                          : 48,0 КГц
Метод сжатия                     : С потерями
Размер потока                    : 14,8 Мбайт (7%)
Выравнивание                     : Соединение по промежуткам
Продолжительность промежутка     : 67  мс. (2,00 видеокадра)
Время предзагрузки промежутка    : 504  мс.
Библиотека кодирования           : LAME3.97
Настройки программы              : -m m -V 4 -q 2 -lowpass 16.5 -b 64
Общее
Полное имя                       : \TTC VIDEO - Understanding the Brain\32 - Consciousness and the Self.avi
Формат                           : AVI
Формат/Информация                : Audio Video Interleave
Размер файла                     : 200 Мбайт
Продолжительность                : 31 м.
Общий поток                      : 874 Кбит/сек
Программа кодирования            : VirtualDubMod 1.5.4.1 (build 2178/release)
Библиотека кодирования           : VirtualDubMod build 2178/release
Видео
Идентификатор                    : 0
Формат                           : MPEG-4 Visual
Профиль формата                  : Advanced Simple@L5
Параметр BVOP формата            : 1
Параметр QPel формата            : Нет
Параметр GMC формата             : Без точки перехода
Параметр матрицы формата         : Default (H.263)
Режим смешивания                 : Сжатый битовый поток
Идентификатор кодека             : XVID
Идентификатор кодека/Подсказка   : XviD
Продолжительность                : 31 м.
Битрейт                          : 801 Кбит/сек
Ширина                           : 448 пикселей
Высота                           : 336 пикселей
Соотношение сторон               : 4:3
Частота кадров                   : 29,970 кадров/сек
Цветовое пространство            : YUV
Субдискретизация насыщенности    : 4:2:0
Битовая глубина                  : 8 бит
Тип развёртки                    : Прогрессивная
Метод сжатия                     : С потерями
Бит/(Пиксели*Кадры)              : 0.178
Размер потока                    : 183 Мбайт (92%)
Библиотека кодирования           : XviD 1.2.0.dev47 (UTC 2006-11-01)
Аудио
Идентификатор                    : 1
Формат                           : MPEG Audio
Версия формата                   : Version 1
Профиль формата                  : Layer 3
Идентификатор кодека             : 55
Идентификатор кодека/Подсказка   : MP3
Продолжительность                : 31 м.
Вид битрейта                     : Постоянный
Битрейт                          : 64,0 Кбит/сек
Каналы                           : 1 канал
Частота                          : 48,0 КГц
Метод сжатия                     : С потерями
Размер потока                    : 14,6 Мбайт (7%)
Выравнивание                     : Соединение по промежуткам
Продолжительность промежутка     : 67  мс. (2,00 видеокадра)
Время предзагрузки промежутка    : 504  мс.
Библиотека кодирования           : LAME3.97
Настройки программы              : -m m -V 4 -q 2 -lowpass 16.5 -b 64
Общее
Полное имя                       : \TTC VIDEO - Understanding the Brain\33 - Alzheimer's Disease.avi
Формат                           : AVI
Формат/Информация                : Audio Video Interleave
Размер файла                     : 200 Мбайт
Продолжительность                : 29 м.
Общий поток                      : 934 Кбит/сек
Программа кодирования            : VirtualDubMod 1.5.4.1 (build 2178/release)
Библиотека кодирования           : VirtualDubMod build 2178/release
Видео
Идентификатор                    : 0
Формат                           : MPEG-4 Visual
Профиль формата                  : Advanced Simple@L5
Параметр BVOP формата            : 1
Параметр QPel формата            : Нет
Параметр GMC формата             : Без точки перехода
Параметр матрицы формата         : Default (H.263)
Режим смешивания                 : Сжатый битовый поток
Идентификатор кодека             : XVID
Идентификатор кодека/Подсказка   : XviD
Продолжительность                : 29 м.
Битрейт                          : 861 Кбит/сек
Ширина                           : 512 пикселей
Высота                           : 384 пикселя
Соотношение сторон               : 4:3
Частота кадров                   : 29,970 кадров/сек
Цветовое пространство            : YUV
Субдискретизация насыщенности    : 4:2:0
Битовая глубина                  : 8 бит
Тип развёртки                    : Прогрессивная
Метод сжатия                     : С потерями
Бит/(Пиксели*Кадры)              : 0.146
Размер потока                    : 184 Мбайт (92%)
Библиотека кодирования           : XviD 1.2.0.dev47 (UTC 2006-11-01)
Аудио
Идентификатор                    : 1
Формат                           : MPEG Audio
Версия формата                   : Version 1
Профиль формата                  : Layer 3
Идентификатор кодека             : 55
Идентификатор кодека/Подсказка   : MP3
Продолжительность                : 29 м.
Вид битрейта                     : Постоянный
Битрейт                          : 64,0 Кбит/сек
Каналы                           : 1 канал
Частота                          : 48,0 КГц
Метод сжатия                     : С потерями
Размер потока                    : 13,7 Мбайт (7%)
Выравнивание                     : Соединение по промежуткам
Продолжительность промежутка     : 67  мс. (2,00 видеокадра)
Время предзагрузки промежутка    : 504  мс.
Библиотека кодирования           : LAME3.97
Настройки программы              : -m m -V 4 -q 2 -lowpass 16.5 -b 64
Общее
Полное имя                       : \TTC VIDEO - Understanding the Brain\34 - Risk Factors for Alzheimer's.avi
Формат                           : AVI
Формат/Информация                : Audio Video Interleave
Размер файла                     : 200 Мбайт
Продолжительность                : 30 м.
Общий поток                      : 922 Кбит/сек
Программа кодирования            : VirtualDubMod 1.5.4.1 (build 2178/release)
Библиотека кодирования           : VirtualDubMod build 2178/release
Видео
Идентификатор                    : 0
Формат                           : MPEG-4 Visual
Профиль формата                  : Advanced Simple@L5
Параметр BVOP формата            : 1
Параметр QPel формата            : Нет
Параметр GMC формата             : Без точки перехода
Параметр матрицы формата         : Default (H.263)
Режим смешивания                 : Сжатый битовый поток
Идентификатор кодека             : XVID
Идентификатор кодека/Подсказка   : XviD
Продолжительность                : 30 м.
Битрейт                          : 849 Кбит/сек
Ширина                           : 496 пикселей
Высота                           : 368 пикселей
Соотношение сторон               : 4:3
Частота кадров                   : 29,970 кадров/сек
Цветовое пространство            : YUV
Субдискретизация насыщенности    : 4:2:0
Битовая глубина                  : 8 бит
Тип развёртки                    : Прогрессивная
Метод сжатия                     : С потерями
Бит/(Пиксели*Кадры)              : 0.155
Размер потока                    : 184 Мбайт (92%)
Библиотека кодирования           : XviD 1.2.0.dev47 (UTC 2006-11-01)
Аудио
Идентификатор                    : 1
Формат                           : MPEG Audio
Версия формата                   : Version 1
Профиль формата                  : Layer 3
Идентификатор кодека             : 55
Идентификатор кодека/Подсказка   : MP3
Продолжительность                : 30 м.
Вид битрейта                     : Постоянный
Битрейт                          : 64,0 Кбит/сек
Каналы                           : 1 канал
Частота                          : 48,0 КГц
Метод сжатия                     : С потерями
Размер потока                    : 13,9 Мбайт (7%)
Выравнивание                     : Соединение по промежуткам
Продолжительность промежутка     : 67  мс. (2,00 видеокадра)
Время предзагрузки промежутка    : 504  мс.
Библиотека кодирования           : LAME3.97
Настройки программы              : -m m -V 4 -q 2 -lowpass 16.5 -b 64
Общее
Полное имя                       : \TTC VIDEO - Understanding the Brain\35 - Wellness - Coping with Stress.avi
Формат                           : AVI
Формат/Информация                : Audio Video Interleave
Размер файла                     : 200 Мбайт
Продолжительность                : 29 м.
Общий поток                      : 934 Кбит/сек
Программа кодирования            : VirtualDubMod 1.5.4.1 (build 2178/release)
Библиотека кодирования           : VirtualDubMod build 2178/release
Видео
Идентификатор                    : 0
Формат                           : MPEG-4 Visual
Профиль формата                  : Advanced Simple@L5
Параметр BVOP формата            : 1
Параметр QPel формата            : Нет
Параметр GMC формата             : Без точки перехода
Параметр матрицы формата         : Default (H.263)
Режим смешивания                 : Сжатый битовый поток
Идентификатор кодека             : XVID
Идентификатор кодека/Подсказка   : XviD
Продолжительность                : 29 м.
Битрейт                          : 861 Кбит/сек
Ширина                           : 464 пикселя
Высота                           : 352 пикселя
Соотношение сторон               : 4:3
Частота кадров                   : 29,970 кадров/сек
Цветовое пространство            : YUV
Субдискретизация насыщенности    : 4:2:0
Битовая глубина                  : 8 бит
Тип развёртки                    : Прогрессивная
Метод сжатия                     : С потерями
Бит/(Пиксели*Кадры)              : 0.176
Размер потока                    : 184 Мбайт (92%)
Библиотека кодирования           : XviD 1.2.0.dev47 (UTC 2006-11-01)
Аудио
Идентификатор                    : 1
Формат                           : MPEG Audio
Версия формата                   : Version 1
Профиль формата                  : Layer 3
Идентификатор кодека             : 55
Идентификатор кодека/Подсказка   : MP3
Продолжительность                : 29 м.
Вид битрейта                     : Постоянный
Битрейт                          : 64,0 Кбит/сек
Каналы                           : 1 канал
Частота                          : 48,0 КГц
Метод сжатия                     : С потерями
Размер потока                    : 13,7 Мбайт (7%)
Выравнивание                     : Соединение по промежуткам
Продолжительность промежутка     : 67  мс. (2,00 видеокадра)
Время предзагрузки промежутка    : 504  мс.
Библиотека кодирования           : LAME3.97
Настройки программы              : -m m -V 4 -q 2 -lowpass 16.5 -b 64
Общее
Полное имя                       : \TTC VIDEO - Understanding the Brain\36 - Neuroscience - Looking Back and Looking Ahead.avi
Формат                           : AVI
Формат/Информация                : Audio Video Interleave
Размер файла                     : 200 Мбайт
Продолжительность                : 31 м.
Общий поток                      : 898 Кбит/сек
Программа кодирования            : VirtualDubMod 1.5.4.1 (build 2178/release)
Библиотека кодирования           : VirtualDubMod build 2178/release
Видео
Идентификатор                    : 0
Формат                           : MPEG-4 Visual
Профиль формата                  : Advanced Simple@L5
Параметр BVOP формата            : 1
Параметр QPel формата            : Нет
Параметр GMC формата             : Без точки перехода
Параметр матрицы формата         : Default (H.263)
Режим смешивания                 : Сжатый битовый поток
Идентификатор кодека             : XVID
Идентификатор кодека/Подсказка   : XviD
Продолжительность                : 31 м.
Битрейт                          : 825 Кбит/сек
Ширина                           : 448 пикселей
Высота                           : 336 пикселей
Соотношение сторон               : 4:3
Частота кадров                   : 29,970 кадров/сек
Цветовое пространство            : YUV
Субдискретизация насыщенности    : 4:2:0
Битовая глубина                  : 8 бит
Тип развёртки                    : Прогрессивная
Метод сжатия                     : С потерями
Бит/(Пиксели*Кадры)              : 0.183
Размер потока                    : 184 Мбайт (92%)
Библиотека кодирования           : XviD 1.2.0.dev47 (UTC 2006-11-01)
Аудио
Идентификатор                    : 1
Формат                           : MPEG Audio
Версия формата                   : Version 1
Профиль формата                  : Layer 3
Идентификатор кодека             : 55
Идентификатор кодека/Подсказка   : MP3
Продолжительность                : 31 м.
Вид битрейта                     : Постоянный
Битрейт                          : 64,0 Кбит/сек
Каналы                           : 1 канал
Частота                          : 48,0 КГц
Метод сжатия                     : С потерями
Размер потока                    : 14,3 Мбайт (7%)
Выравнивание                     : Соединение по промежуткам
Продолжительность промежутка     : 67  мс. (2,00 видеокадра)
Время предзагрузки промежутка    : 504  мс.
Библиотека кодирования           : LAME3.97
Настройки программы              : -m m -V 4 -q 2 -lowpass 16.5 -b 64


24.05.17 Торрент файл заменен с на публичный. -

Постеры

Соцсети

 

Статистика

Автор: Stepan
Добавлен: 07 апр 2018, 23:59
Размер: 7.02 ГБ
Размер: 7 541 606 400 байт
Сидеров: 0
Личеров: 0
Скачали: 0
Здоровье: 0%
Статус:
Скорость скачивания: 0 байт/сек
Скорость раздачи: 0 байт/сек
Последний сидер: Нет
Последний личер: Нет
Приватный: Нет (DHT включён)
Школьникам, студентам и педагогам Скачать торрент
Скачать торрент
[ Размер 37.93 КБ / Просмотров 0 ]

Поделиться



Вернуться в Школьникам, студентам и педагогам