Сообщение

Сергей Вячеславович Савельев - Управление мозгом человека [2015, лекция, наука, морфология, эволюция, CAMRip, rus]

Сообщение Stepan » 08 апр 2018, 00:09

Сергей Вячеславович Савельев - Управление мозгом человека


Год выпуска: 2015
Страна: Россия
Жанр: лекция, наука, морфология, эволюция
Продолжительность: 01:58:17
Перевод: Не требуется
Описание: Мозг - механизм для управления человеком. А что управляет самим мозгом?
Почему люди не хотят думать? Что отличает мозг профессора от мозга извозчика? Как программировать человека? Как делают фанатиков? Как находить гениев? Сколько органов чувств у человека? Возможен ли искусственный интеллект? Куда движется эволюция человека?

качество: CAMRip
формат: MP4
Видео: 1 200 Kbps, 1280*720 (16:9), at 25.000 fps, AVC
Аудио: 128 Kbps, 44.1 KHz, 1 channel, AAC

Код: Выделить всё
General
Complete name                            : D:\Сергей Савельев - Управление мозгом человека 2015.mp4
Format                                   : MPEG-4
Format profile                           : Base Media / Version 2
Codec ID                                 : mp42
File size                                : 1.17 GiB
Duration                                 : 1h 58mn
Overall bit rate mode                    : Variable
Overall bit rate                         : 1 414 Kbps
Movie name                               : Ужасы мозга
Composer                                 : Artem
Encoded date                             : UTC 2015-01-06 05:16:42
Tagged date                              : UTC 2015-01-06 02:19:09
Writing application                      : Sorenson Squeeze
Comment                                  : Encoded by
Video
ID                                       : 2
Format                                   : AVC
Format/Info                              : Advanced Video Codec
Format profile                           : High@L3.2
Format settings, CABAC                   : Yes
Format settings, ReFrames                : 3 frames
Codec ID                                 : avc1
Codec ID/Info                            : Advanced Video Coding
Duration                                 : 1h 58mn
Bit rate mode                            : Variable
Bit rate                                 : 1 200 Kbps
Width                                    : 1 280 pixels
Height                                   : 720 pixels
Display aspect ratio                     : 16:9
Frame rate mode                          : Constant
Frame rate                               : 25.000 fps
Standard                                 : PAL
Color space                              : YUV
Chroma subsampling                       : 4:2:0
Bit depth                                : 8 bits
Scan type                                : Progressive
Bits/(Pixel*Frame)                       : 0.052
Stream size                              : 1 016 MiB (85%)
Encoded date                             : UTC 2015-01-06 05:16:42
Tagged date                              : UTC 2015-01-06 05:16:42
Color primaries                          : BT.709
Transfer characteristics                 : BT.709
Matrix coefficients                      : BT.709
Audio
ID                                       : 1
Format                                   : AAC
Format/Info                              : Advanced Audio Codec
Format profile                           : LC
Codec ID                                 : 40
Duration                                 : 1h 58mn
Bit rate mode                            : Variable
Bit rate                                 : 128 Kbps
Maximum bit rate                         : 4 219 Mbps
Channel(s)                               : 1 channel
Channel positions                        : Front: C
Sampling rate                            : 44.1 KHz
Compression mode                         : Lossy
Stream size                              : 108 MiB (9%)
Encoded date                             : UTC 2015-01-06 05:16:42
Tagged date                              : UTC 2015-01-06 05:16:42

Постеры

Соцсети

 

Статистика

Автор: Stepan
Добавлен: 08 апр 2018, 00:09
Размер: 1.17 ГБ
Размер: 1 254 822 923 байт
Сидеров: 1
Личеров: 1
Скачали: 0
Здоровье: 100%
Раздающих: 100%
Статус:
Скорость скачивания: 0 байт/сек
Скорость раздачи: 0 байт/сек
Последний сидер: 3 месяца 5 дней 14 часов 51 минуту 24 секунды назад
Последний личер: 3 месяца 5 дней 14 часов 51 минуту 24 секунды назад
Приватный: Нет (DHT включён)
Школьникам, студентам и педагогам Скачать торрент
Скачать торрент
[ Размер 12.21 КБ / Просмотров 0 ]

Поделиться



  • Похожие торренты
    Ответы
    Просмотры
    Последнее сообщение

Вернуться в Школьникам, студентам и педагогам