Сообщение

[Udemy.com] Алгебра для новичков / Algebra for Beginners [2015, алгебра, WebRip, ENG] (Видеоурок)

Сообщение Stepan » 08 апр 2018, 00:11

Алгебра для новичков / Algebra for Beginners
Страна: США
Тематика: алгебра
Тип раздаваемого материала: Видеоурок
Продолжительность: 1:53:46
Год выпуска: 2015
Язык: Английский
Перевод: Отсутствует
Описание: This course is aimed at beginners, those who are just starting out or who are unfamiliar with basic algebra and wanting to refresh their knowledge and skills. It is broken down into bitesize chunks making it suitable for both learning and revising. You will gain an understanding and be able to put in to practice knowledge and skills in the areas of:Positive and Negative Numbers
Order of Operations using BODMAS/BIDMAS/PEMDAS
Constants, Variables and Expressions
Collecting Like Terms
Forming and Solving Equations and more...
If you are wanting to prepare for what lies ahead or simply gain a better understanding in these areas then this course is ideal for you.
Курс для всех, кто незнаком с основами алгебры или хочет освежить свои знания и умения. Он разбит на несколько кусков с целью удобства изучения и возврата к другим главам. Вы научитесь навыкам в следующих сферах:положительные и отрицательные числа
приоритет операций
константы, переменные и выражения
коллекции наподобие периодов
составление и решение уравнений и мн. др.
Если вы желаете улучшить знания в этих областях, курс идеально подходит вам.
Доп. информация: курс на юдеми: udemy.com/algebra-for-beginners
Качество: WEBRip
Формат: MP4
Видео кодек: H.264
Аудио кодек: AAC
Видео: AVC, 1280x720, 16:9, 590kbps, 29.97fps
Аудио: AAC, 60.7kbps, 48kHz, stereo
General
Complete name : C:\Udemy - Algebra for Beginners\1_-_Welcome_to_the_Course\1_-_Welcome_Video.mp4
Format : MPEG-4
Format profile : Base Media
Codec ID : isom
File size : 8.54 MiB
Duration : 1mn 50s
Overall bit rate mode : Variable
Overall bit rate : 648 Kbps
Encoded date : UTC 2015-10-12 14:11:42
Tagged date : UTC 2015-10-12 14:11:42
Video
ID : 1
Format : AVC
Format/Info : Advanced Video Codec
Format profile : Baseline@L3.1
Format settings, CABAC : No
Format settings, ReFrames : 3 frames
Format settings, GOP : M=1, N=50
Codec ID : avc1
Codec ID/Info : Advanced Video Coding
Duration : 1mn 50s
Bit rate : 590 Kbps
Maximum bit rate : 4 417 Kbps
Width : 1 280 pixels
Height : 720 pixels
Display aspect ratio : 16:9
Frame rate mode : Constant
Frame rate : 29.970 fps
Color space : YUV
Chroma subsampling : 4:2:0
Bit depth : 8 bits
Scan type : Progressive
Bits/(Pixel*Frame) : 0.021
Stream size : 7.77 MiB (91%)
Writing library : Zencoder Video Encoding System
Encoded date : UTC 2015-10-12 14:11:14
Tagged date : UTC 2015-10-12 14:11:42
Color range : Limited
Color primaries : BT.709
Transfer characteristics : BT.709
Matrix coefficients : BT.709
Audio
ID : 2
Format : AAC
Format/Info : Advanced Audio Codec
Format profile : LC
Codec ID : 40
Duration : 1mn 50s
Bit rate mode : Variable
Bit rate : 55.7 Kbps
Maximum bit rate : 63.0 Kbps
Channel(s) : 2 channels
Channel positions : Front: L R
Sampling rate : 48.0 KHz
Compression mode : Lossy
Stream size : 752 KiB (9%)
Encoded date : UTC 2015-10-12 14:11:14
Tagged date : UTC 2015-10-12 14:11:42
General
Complete name : C:\Udemy - Algebra for Beginners\2_-_Positive_and_Negative_Numbers\10_-_Order_of_Operations_BODMAS_-_Further_Practice_-_Answers.mp4
Format : MPEG-4
Format profile : Base Media
Codec ID : isom
File size : 21.7 MiB
Duration : 10mn 6s
Overall bit rate mode : Variable
Overall bit rate : 300 Kbps
Encoded date : UTC 2015-06-09 14:04:11
Tagged date : UTC 2015-06-09 14:04:11
Video
ID : 1
Format : AVC
Format/Info : Advanced Video Codec
Format profile : Baseline@L3.1
Format settings, CABAC : No
Format settings, ReFrames : 3 frames
Format settings, GOP : M=1, N=50
Codec ID : avc1
Codec ID/Info : Advanced Video Coding
Duration : 10mn 6s
Bit rate : 238 Kbps
Maximum bit rate : 5 530 Kbps
Width : 1 280 pixels
Height : 720 pixels
Display aspect ratio : 16:9
Frame rate mode : Constant
Frame rate : 29.970 fps
Color space : YUV
Chroma subsampling : 4:2:0
Bit depth : 8 bits
Scan type : Progressive
Bits/(Pixel*Frame) : 0.009
Stream size : 17.2 MiB (79%)
Writing library : Zencoder Video Encoding System
Encoded date : UTC 2015-06-09 14:03:25
Tagged date : UTC 2015-06-09 14:04:11
Color range : Limited
Color primaries : BT.709
Transfer characteristics : BT.709
Matrix coefficients : BT.709
Audio
ID : 2
Format : AAC
Format/Info : Advanced Audio Codec
Format profile : LC
Codec ID : 40
Duration : 10mn 6s
Bit rate mode : Variable
Bit rate : 59.4 Kbps
Maximum bit rate : 67.4 Kbps
Channel(s) : 2 channels
Channel positions : Front: L R
Sampling rate : 48.0 KHz
Compression mode : Lossy
Stream size : 4.30 MiB (20%)
Encoded date : UTC 2015-06-09 14:03:25
Tagged date : UTC 2015-06-09 14:04:11
General
Complete name : C:\Udemy - Algebra for Beginners\2_-_Positive_and_Negative_Numbers\2_-_Positive_and_Negative_Numbers_Introduction.mp4
Format : MPEG-4
Format profile : Base Media
Codec ID : isom
File size : 17.8 MiB
Duration : 2mn 53s
Overall bit rate mode : Variable
Overall bit rate : 859 Kbps
Encoded date : UTC 2015-09-08 11:14:35
Tagged date : UTC 2015-09-08 11:14:35
Video
ID : 1
Format : AVC
Format/Info : Advanced Video Codec
Format profile : Baseline@L3.1
Format settings, CABAC : No
Format settings, ReFrames : 3 frames
Format settings, GOP : M=1, N=50
Codec ID : avc1
Codec ID/Info : Advanced Video Coding
Duration : 2mn 53s
Bit rate : 805 Kbps
Maximum bit rate : 3 397 Kbps
Width : 1 280 pixels
Height : 720 pixels
Display aspect ratio : 16:9
Frame rate mode : Constant
Frame rate : 29.970 fps
Color space : YUV
Chroma subsampling : 4:2:0
Bit depth : 8 bits
Scan type : Progressive
Bits/(Pixel*Frame) : 0.029
Stream size : 16.7 MiB (94%)
Writing library : Zencoder Video Encoding System
Encoded date : UTC 2015-09-08 11:14:00
Tagged date : UTC 2015-09-08 11:14:35
Color range : Limited
Color primaries : BT.709
Transfer characteristics : BT.709
Matrix coefficients : BT.709
Audio
ID : 2
Format : AAC
Format/Info : Advanced Audio Codec
Format profile : LC
Codec ID : 40
Duration : 2mn 53s
Bit rate mode : Variable
Bit rate : 51.5 Kbps
Maximum bit rate : 63.2 Kbps
Channel(s) : 2 channels
Channel positions : Front: L R
Sampling rate : 48.0 KHz
Compression mode : Lossy
Stream size : 1.07 MiB (6%)
Encoded date : UTC 2015-09-08 11:14:00
Tagged date : UTC 2015-09-08 11:14:35
General
Complete name : C:\Udemy - Algebra for Beginners\2_-_Positive_and_Negative_Numbers\3_-_Worked_Examples_-_Adding_and_Subtracting_Positive_and_Negative_Numbers.mp4
Format : MPEG-4
Format profile : Base Media
Codec ID : isom
File size : 5.75 MiB
Duration : 4mn 0s
Overall bit rate mode : Variable
Overall bit rate : 200 Kbps
Encoded date : UTC 2015-07-29 21:53:37
Tagged date : UTC 2015-07-29 21:53:37
Video
ID : 1
Format : AVC
Format/Info : Advanced Video Codec
Format profile : Baseline@L3.1
Format settings, CABAC : No
Format settings, ReFrames : 3 frames
Format settings, GOP : M=1, N=75
Codec ID : avc1
Codec ID/Info : Advanced Video Coding
Duration : 4mn 0s
Bit rate : 137 Kbps
Maximum bit rate : 1 147 Kbps
Width : 1 280 pixels
Height : 720 pixels
Display aspect ratio : 16:9
Frame rate mode : Constant
Frame rate : 29.970 fps
Color space : YUV
Chroma subsampling : 4:2:0
Bit depth : 8 bits
Scan type : Progressive
Bits/(Pixel*Frame) : 0.005
Stream size : 3.93 MiB (68%)
Writing library : Zencoder Video Encoding System
Encoded date : UTC 2015-07-29 21:53:11
Tagged date : UTC 2015-07-29 21:53:37
Color range : Limited
Color primaries : BT.709
Transfer characteristics : BT.709
Matrix coefficients : BT.709
Audio
ID : 2
Format : AAC
Format/Info : Advanced Audio Codec
Format profile : LC
Codec ID : 40
Duration : 4mn 0s
Bit rate mode : Variable
Bit rate : 60.7 Kbps
Maximum bit rate : 67.2 Kbps
Channel(s) : 2 channels
Channel positions : Front: L R
Sampling rate : 48.0 KHz
Compression mode : Lossy
Stream size : 1.74 MiB (30%)
Encoded date : UTC 2015-07-29 21:53:11
Tagged date : UTC 2015-07-29 21:53:37
General
Complete name : C:\Udemy - Algebra for Beginners\2_-_Positive_and_Negative_Numbers\5_-_Multiplying_and_Dividing_with_positive_and_negative_numbers.mp4
Format : MPEG-4
Format profile : Base Media
Codec ID : isom
File size : 12.5 MiB
Duration : 3mn 7s
Overall bit rate mode : Variable
Overall bit rate : 560 Kbps
Encoded date : UTC 2015-09-09 14:11:09
Tagged date : UTC 2015-09-09 14:11:09
Video
ID : 1
Format : AVC
Format/Info : Advanced Video Codec
Format profile : Baseline@L3.1
Format settings, CABAC : No
Format settings, ReFrames : 3 frames
Codec ID : avc1
Codec ID/Info : Advanced Video Coding
Duration : 3mn 7s
Bit rate : 512 Kbps
Maximum bit rate : 5 034 Kbps
Width : 1 280 pixels
Height : 720 pixels
Display aspect ratio : 16:9
Frame rate mode : Constant
Frame rate : 29.970 fps
Color space : YUV
Chroma subsampling : 4:2:0
Bit depth : 8 bits
Scan type : Progressive
Bits/(Pixel*Frame) : 0.019
Stream size : 11.4 MiB (91%)
Writing library : Zencoder Video Encoding System
Encoded date : UTC 2015-09-09 14:10:33
Tagged date : UTC 2015-09-09 14:11:09
Color range : Limited
Color primaries : BT.709
Transfer characteristics : BT.709
Matrix coefficients : BT.709
Audio
ID : 2
Format : AAC
Format/Info : Advanced Audio Codec
Format profile : LC
Codec ID : 40
Duration : 3mn 7s
Bit rate mode : Variable
Bit rate : 45.6 Kbps
Maximum bit rate : 60.0 Kbps
Channel(s) : 2 channels
Channel positions : Front: L R
Sampling rate : 48.0 KHz
Compression mode : Lossy
Stream size : 1.02 MiB (8%)
Encoded date : UTC 2015-09-09 14:10:33
Tagged date : UTC 2015-09-09 14:11:09
General
Complete name : C:\Udemy - Algebra for Beginners\2_-_Positive_and_Negative_Numbers\6_-_Order_of_Operations_-_BODMAS_-_Introduction.mp4
Format : MPEG-4
Format profile : Base Media
Codec ID : isom
File size : 13.3 MiB
Duration : 4mn 21s
Overall bit rate mode : Variable
Overall bit rate : 427 Kbps
Encoded date : UTC 2015-09-04 15:10:16
Tagged date : UTC 2015-09-04 15:10:16
Video
ID : 1
Format : AVC
Format/Info : Advanced Video Codec
Format profile : Baseline@L3.1
Format settings, CABAC : No
Format settings, ReFrames : 3 frames
Codec ID : avc1
Codec ID/Info : Advanced Video Coding
Duration : 4mn 21s
Bit rate : 375 Kbps
Maximum bit rate : 1 698 Kbps
Width : 1 280 pixels
Height : 720 pixels
Display aspect ratio : 16:9
Frame rate mode : Constant
Frame rate : 29.970 fps
Color space : YUV
Chroma subsampling : 4:2:0
Bit depth : 8 bits
Scan type : Progressive
Bits/(Pixel*Frame) : 0.014
Stream size : 11.7 MiB (88%)
Writing library : Zencoder Video Encoding System
Encoded date : UTC 2015-09-04 15:09:31
Tagged date : UTC 2015-09-04 15:10:16
Color range : Limited
Color primaries : BT.709
Transfer characteristics : BT.709
Matrix coefficients : BT.709
Audio
ID : 2
Format : AAC
Format/Info : Advanced Audio Codec
Format profile : LC
Codec ID : 40
Duration : 4mn 21s
Bit rate mode : Variable
Bit rate : 48.0 Kbps
Maximum bit rate : 60.7 Kbps
Channel(s) : 2 channels
Channel positions : Front: L R
Sampling rate : 48.0 KHz
Compression mode : Lossy
Stream size : 1.55 MiB (12%)
Encoded date : UTC 2015-09-04 15:09:31
Tagged date : UTC 2015-09-04 15:10:16
General
Complete name : C:\Udemy - Algebra for Beginners\2_-_Positive_and_Negative_Numbers\7_-_BODMAS_Worked_Examples.mp4
Format : MPEG-4
Format profile : Base Media
Codec ID : isom
File size : 8.33 MiB
Duration : 3mn 45s
Overall bit rate mode : Variable
Overall bit rate : 310 Kbps
Encoded date : UTC 2015-06-08 12:18:27
Tagged date : UTC 2015-06-08 12:18:27
Video
ID : 1
Format : AVC
Format/Info : Advanced Video Codec
Format profile : Baseline@L3.1
Format settings, CABAC : No
Format settings, ReFrames : 3 frames
Format settings, GOP : M=1, N=50
Codec ID : avc1
Codec ID/Info : Advanced Video Coding
Duration : 3mn 45s
Bit rate : 248 Kbps
Maximum bit rate : 1 420 Kbps
Width : 1 280 pixels
Height : 720 pixels
Display aspect ratio : 16:9
Frame rate mode : Constant
Frame rate : 29.970 fps
Color space : YUV
Chroma subsampling : 4:2:0
Bit depth : 8 bits
Scan type : Progressive
Bits/(Pixel*Frame) : 0.009
Stream size : 6.65 MiB (80%)
Writing library : Zencoder Video Encoding System
Encoded date : UTC 2015-06-08 12:18:12
Tagged date : UTC 2015-06-08 12:18:27
Color range : Limited
Color primaries : BT.709
Transfer characteristics : BT.709
Matrix coefficients : BT.709
Audio
ID : 2
Format : AAC
Format/Info : Advanced Audio Codec
Format profile : LC
Codec ID : 40
Duration : 3mn 45s
Bit rate mode : Variable
Bit rate : 59.9 Kbps
Maximum bit rate : 65.9 Kbps
Channel(s) : 2 channels
Channel positions : Front: L R
Sampling rate : 48.0 KHz
Compression mode : Lossy
Stream size : 1.61 MiB (19%)
Encoded date : UTC 2015-06-08 12:18:12
Tagged date : UTC 2015-06-08 12:18:27
General
Complete name : C:\Udemy - Algebra for Beginners\3_-_Basic_Algebra\11_-_Constants_Variables_and_Expressions.mp4
Format : MPEG-4
Format profile : Base Media
Codec ID : isom
File size : 5.90 MiB
Duration : 3mn 33s
Overall bit rate mode : Variable
Overall bit rate : 232 Kbps
Encoded date : UTC 2015-07-30 13:12:28
Tagged date : UTC 2015-07-30 13:12:28
Video
ID : 1
Format : AVC
Format/Info : Advanced Video Codec
Format profile : Baseline@L3.1
Format settings, CABAC : No
Format settings, ReFrames : 3 frames
Format settings, GOP : M=1, N=75
Codec ID : avc1
Codec ID/Info : Advanced Video Coding
Duration : 3mn 33s
Bit rate : 169 Kbps
Maximum bit rate : 2 096 Kbps
Width : 1 280 pixels
Height : 720 pixels
Display aspect ratio : 16:9
Frame rate mode : Constant
Frame rate : 29.970 fps
Color space : YUV
Chroma subsampling : 4:2:0
Bit depth : 8 bits
Scan type : Progressive
Bits/(Pixel*Frame) : 0.006
Stream size : 4.29 MiB (73%)
Writing library : Zencoder Video Encoding System
Encoded date : UTC 2015-07-30 13:12:10
Tagged date : UTC 2015-07-30 13:12:28
Color range : Limited
Color primaries : BT.709
Transfer characteristics : BT.709
Matrix coefficients : BT.709
Audio
ID : 2
Format : AAC
Format/Info : Advanced Audio Codec
Format profile : LC
Codec ID : 40
Duration : 3mn 33s
Bit rate mode : Variable
Bit rate : 60.5 Kbps
Maximum bit rate : 83.1 Kbps
Channel(s) : 2 channels
Channel positions : Front: L R
Sampling rate : 48.0 KHz
Compression mode : Lossy
Stream size : 1.54 MiB (26%)
Encoded date : UTC 2015-07-30 13:12:10
Tagged date : UTC 2015-07-30 13:12:28
General
Complete name : C:\Udemy - Algebra for Beginners\3_-_Basic_Algebra\12_-_Collecting_Like_Terms_-_Introduction.mp4
Format : MPEG-4
Format profile : Base Media
Codec ID : isom
File size : 5.40 MiB
Duration : 3mn 37s
Overall bit rate mode : Variable
Overall bit rate : 208 Kbps
Encoded date : UTC 2015-07-29 22:18:52
Tagged date : UTC 2015-07-29 22:18:52
Video
ID : 1
Format : AVC
Format/Info : Advanced Video Codec
Format profile : Baseline@L3.1
Format settings, CABAC : No
Format settings, ReFrames : 3 frames
Format settings, GOP : M=1, N=75
Codec ID : avc1
Codec ID/Info : Advanced Video Coding
Duration : 3mn 37s
Bit rate : 147 Kbps
Maximum bit rate : 2 457 Kbps
Width : 1 280 pixels
Height : 720 pixels
Display aspect ratio : 16:9
Frame rate mode : Constant
Frame rate : 29.970 fps
Color space : YUV
Chroma subsampling : 4:2:0
Bit depth : 8 bits
Scan type : Progressive
Bits/(Pixel*Frame) : 0.005
Stream size : 3.80 MiB (70%)
Writing library : Zencoder Video Encoding System
Encoded date : UTC 2015-07-29 22:18:01
Tagged date : UTC 2015-07-29 22:18:52
Color range : Limited
Color primaries : BT.709
Transfer characteristics : BT.709
Matrix coefficients : BT.709
Audio
ID : 2
Format : AAC
Format/Info : Advanced Audio Codec
Format profile : LC
Codec ID : 40
Duration : 3mn 37s
Bit rate mode : Variable
Bit rate : 59.1 Kbps
Maximum bit rate : 65.4 Kbps
Channel(s) : 2 channels
Channel positions : Front: L R
Sampling rate : 48.0 KHz
Compression mode : Lossy
Stream size : 1.53 MiB (28%)
Encoded date : UTC 2015-07-29 22:18:01
Tagged date : UTC 2015-07-29 22:18:52
General
Complete name : C:\Udemy - Algebra for Beginners\3_-_Basic_Algebra\13_-_Collecting_Like_Terms_-_Examples.mp4
Format : MPEG-4
Format profile : Base Media
Codec ID : isom
File size : 9.10 MiB
Duration : 5mn 22s
Overall bit rate mode : Variable
Overall bit rate : 237 Kbps
Encoded date : UTC 2015-07-29 22:41:11
Tagged date : UTC 2015-07-29 22:41:11
Video
ID : 1
Format : AVC
Format/Info : Advanced Video Codec
Format profile : Baseline@L3.1
Format settings, CABAC : No
Format settings, ReFrames : 3 frames
Format settings, GOP : M=1, N=75
Codec ID : avc1
Codec ID/Info : Advanced Video Coding
Duration : 5mn 22s
Bit rate : 174 Kbps
Maximum bit rate : 1 505 Kbps
Width : 1 280 pixels
Height : 720 pixels
Display aspect ratio : 16:9
Frame rate mode : Constant
Frame rate : 29.970 fps
Color space : YUV
Chroma subsampling : 4:2:0
Bit depth : 8 bits
Scan type : Progressive
Bits/(Pixel*Frame) : 0.006
Stream size : 6.70 MiB (74%)
Writing library : Zencoder Video Encoding System
Encoded date : UTC 2015-07-29 22:40:47
Tagged date : UTC 2015-07-29 22:41:11
Color range : Limited
Color primaries : BT.709
Transfer characteristics : BT.709
Matrix coefficients : BT.709
Audio
ID : 2
Format : AAC
Format/Info : Advanced Audio Codec
Format profile : LC
Codec ID : 40
Duration : 5mn 22s
Bit rate mode : Variable
Bit rate : 60.0 Kbps
Maximum bit rate : 64.8 Kbps
Channel(s) : 2 channels
Channel positions : Front: L R
Sampling rate : 48.0 KHz
Compression mode : Lossy
Stream size : 2.30 MiB (25%)
Encoded date : UTC 2015-07-29 22:40:47
Tagged date : UTC 2015-07-29 22:41:11
General
Complete name : C:\Udemy - Algebra for Beginners\3_-_Basic_Algebra\15_-_Magic_Number_Pyramids.mp4
Format : MPEG-4
Format profile : Base Media
Codec ID : isom
File size : 7.18 MiB
Duration : 2mn 41s
Overall bit rate mode : Variable
Overall bit rate : 374 Kbps
Encoded date : UTC 2015-07-27 15:30:00
Tagged date : UTC 2015-07-27 15:30:00
Video
ID : 1
Format : AVC
Format/Info : Advanced Video Codec
Format profile : Baseline@L3.1
Format settings, CABAC : No
Format settings, ReFrames : 3 frames
Codec ID : avc1
Codec ID/Info : Advanced Video Coding
Duration : 2mn 41s
Bit rate : 312 Kbps
Maximum bit rate : 871 Kbps
Width : 1 280 pixels
Height : 720 pixels
Display aspect ratio : 16:9
Frame rate mode : Constant
Frame rate : 29.970 fps
Color space : YUV
Chroma subsampling : 4:2:0
Bit depth : 8 bits
Scan type : Progressive
Bits/(Pixel*Frame) : 0.011
Stream size : 5.98 MiB (83%)
Writing library : Zencoder Video Encoding System
Encoded date : UTC 2015-07-27 15:29:51
Tagged date : UTC 2015-07-27 15:30:00
Color range : Limited
Color primaries : BT.709
Transfer characteristics : BT.709
Matrix coefficients : BT.709
Audio
ID : 2
Format : AAC
Format/Info : Advanced Audio Codec
Format profile : LC
Codec ID : 40
Duration : 2mn 41s
Bit rate mode : Variable
Bit rate : 59.4 Kbps
Maximum bit rate : 66.0 Kbps
Channel(s) : 2 channels
Channel positions : Front: L R
Sampling rate : 48.0 KHz
Compression mode : Lossy
Stream size : 1.14 MiB (16%)
Encoded date : UTC 2015-07-27 15:29:51
Tagged date : UTC 2015-07-27 15:30:00
General
Complete name : C:\Udemy - Algebra for Beginners\3_-_Basic_Algebra\16_-_Expression_Pyramids.mp4
Format : MPEG-4
Format profile : Base Media
Codec ID : isom
File size : 10.1 MiB
Duration : 8mn 10s
Overall bit rate mode : Variable
Overall bit rate : 173 Kbps
Encoded date : UTC 2015-07-29 23:15:11
Tagged date : UTC 2015-07-29 23:15:11
Video
ID : 1
Format : AVC
Format/Info : Advanced Video Codec
Format profile : Baseline@L3.1
Format settings, CABAC : No
Format settings, ReFrames : 3 frames
Format settings, GOP : M=1, N=75
Codec ID : avc1
Codec ID/Info : Advanced Video Coding
Duration : 8mn 10s
Bit rate : 109 Kbps
Maximum bit rate : 1 596 Kbps
Width : 1 280 pixels
Height : 720 pixels
Display aspect ratio : 16:9
Frame rate mode : Constant
Frame rate : 29.970 fps
Color space : YUV
Chroma subsampling : 4:2:0
Bit depth : 8 bits
Scan type : Progressive
Bits/(Pixel*Frame) : 0.004
Stream size : 6.37 MiB (63%)
Writing library : Zencoder Video Encoding System
Encoded date : UTC 2015-07-29 23:14:19
Tagged date : UTC 2015-07-29 23:15:11
Color range : Limited
Color primaries : BT.709
Transfer characteristics : BT.709
Matrix coefficients : BT.709
Audio
ID : 2
Format : AAC
Format/Info : Advanced Audio Codec
Format profile : LC
Codec ID : 40
Duration : 8mn 10s
Bit rate mode : Variable
Bit rate : 60.9 Kbps
Maximum bit rate : 69.8 Kbps
Channel(s) : 2 channels
Channel positions : Front: L R
Sampling rate : 48.0 KHz
Compression mode : Lossy
Stream size : 3.56 MiB (35%)
Encoded date : UTC 2015-07-29 23:14:19
Tagged date : UTC 2015-07-29 23:15:11
General
Complete name : C:\Udemy - Algebra for Beginners\3_-_Basic_Algebra\17_-_Translating_English_to_Mathematics_Introduction_and_Examples.mp4
Format : MPEG-4
Format profile : Base Media
Codec ID : isom
File size : 9.86 MiB
Duration : 4mn 24s
Overall bit rate mode : Variable
Overall bit rate : 312 Kbps
Encoded date : UTC 2015-08-10 14:06:40
Tagged date : UTC 2015-08-10 14:06:40
Video
ID : 1
Format : AVC
Format/Info : Advanced Video Codec
Format profile : Baseline@L3.1
Format settings, CABAC : No
Format settings, ReFrames : 3 frames
Format settings, GOP : M=1, N=50
Codec ID : avc1
Codec ID/Info : Advanced Video Coding
Duration : 4mn 24s
Bit rate : 253 Kbps
Maximum bit rate : 1 818 Kbps
Width : 1 280 pixels
Height : 720 pixels
Display aspect ratio : 16:9
Frame rate mode : Constant
Frame rate : 29.970 fps
Color space : YUV
Chroma subsampling : 4:2:0
Bit depth : 8 bits
Scan type : Progressive
Bits/(Pixel*Frame) : 0.009
Stream size : 7.98 MiB (81%)
Writing library : Zencoder Video Encoding System
Encoded date : UTC 2015-08-10 14:06:15
Tagged date : UTC 2015-08-10 14:06:40
Color range : Limited
Color primaries : BT.709
Transfer characteristics : BT.709
Matrix coefficients : BT.709
Audio
ID : 2
Format : AAC
Format/Info : Advanced Audio Codec
Format profile : LC
Codec ID : 40
Duration : 4mn 24s
Bit rate mode : Variable
Bit rate : 56.7 Kbps
Maximum bit rate : 62.8 Kbps
Channel(s) : 2 channels
Channel positions : Front: L R
Sampling rate : 48.0 KHz
Compression mode : Lossy
Stream size : 1.79 MiB (18%)
Encoded date : UTC 2015-08-10 14:06:15
Tagged date : UTC 2015-08-10 14:06:40
General
Complete name : C:\Udemy - Algebra for Beginners\3_-_Basic_Algebra\18_-_Evaluating_Algebraic_Expressions.mp4
Format : MPEG-4
Format profile : Base Media
Codec ID : isom
File size : 6.57 MiB
Duration : 3mn 5s
Overall bit rate mode : Variable
Overall bit rate : 296 Kbps
Encoded date : UTC 2015-09-21 16:24:18
Tagged date : UTC 2015-09-21 16:24:18
Video
ID : 1
Format : AVC
Format/Info : Advanced Video Codec
Format profile : Baseline@L3.1
Format settings, CABAC : No
Format settings, ReFrames : 3 frames
Format settings, GOP : M=1, N=50
Codec ID : avc1
Codec ID/Info : Advanced Video Coding
Duration : 3mn 5s
Bit rate : 242 Kbps
Maximum bit rate : 1 528 Kbps
Width : 1 280 pixels
Height : 720 pixels
Display aspect ratio : 16:9
Frame rate mode : Constant
Frame rate : 29.970 fps
Color space : YUV
Chroma subsampling : 4:2:0
Bit depth : 8 bits
Scan type : Progressive
Bits/(Pixel*Frame) : 0.009
Stream size : 5.37 MiB (82%)
Writing library : Zencoder Video Encoding System
Encoded date : UTC 2015-09-21 16:23:45
Tagged date : UTC 2015-09-21 16:24:18
Color range : Limited
Color primaries : BT.709
Transfer characteristics : BT.709
Matrix coefficients : BT.709
Audio
ID : 2
Format : AAC
Format/Info : Advanced Audio Codec
Format profile : LC
Codec ID : 40
Duration : 3mn 5s
Bit rate mode : Variable
Bit rate : 51.5 Kbps
Maximum bit rate : 61.3 Kbps
Channel(s) : 2 channels
Channel positions : Front: L R
Sampling rate : 48.0 KHz
Compression mode : Lossy
Stream size : 1.14 MiB (17%)
Encoded date : UTC 2015-09-21 16:23:45
Tagged date : UTC 2015-09-21 16:24:18
General
Complete name : C:\Udemy - Algebra for Beginners\4_-_Linear_Equations\19_-_What_is_an_Equation.mp4
Format : MPEG-4
Format profile : Base Media
Codec ID : isom
File size : 4.07 MiB
Duration : 1mn 55s
Overall bit rate mode : Variable
Overall bit rate : 295 Kbps
Encoded date : UTC 2015-08-12 13:12:44
Tagged date : UTC 2015-08-12 13:12:44
Video
ID : 1
Format : AVC
Format/Info : Advanced Video Codec
Format profile : Baseline@L3.1
Format settings, CABAC : No
Format settings, ReFrames : 3 frames
Codec ID : avc1
Codec ID/Info : Advanced Video Coding
Duration : 1mn 55s
Bit rate : 243 Kbps
Maximum bit rate : 4 914 Kbps
Width : 1 280 pixels
Height : 720 pixels
Display aspect ratio : 16:9
Frame rate mode : Constant
Frame rate : 29.970 fps
Color space : YUV
Chroma subsampling : 4:2:0
Bit depth : 8 bits
Scan type : Progressive
Bits/(Pixel*Frame) : 0.009
Stream size : 3.34 MiB (82%)
Writing library : Zencoder Video Encoding System
Encoded date : UTC 2015-08-12 13:12:32
Tagged date : UTC 2015-08-12 13:12:44
Color range : Limited
Color primaries : BT.709
Transfer characteristics : BT.709
Matrix coefficients : BT.709
Audio
ID : 2
Format : AAC
Format/Info : Advanced Audio Codec
Format profile : LC
Codec ID : 40
Duration : 1mn 55s
Bit rate mode : Variable
Bit rate : 48.0 Kbps
Maximum bit rate : 64.0 Kbps
Channel(s) : 2 channels
Channel positions : Front: L R
Sampling rate : 48.0 KHz
Compression mode : Lossy
Stream size : 704 KiB (17%)
Encoded date : UTC 2015-08-12 13:12:32
Tagged date : UTC 2015-08-12 13:12:44
General
Complete name : C:\Udemy - Algebra for Beginners\4_-_Linear_Equations\20_-_Solving_an_Equation.mp4
Format : MPEG-4
Format profile : Base Media
Codec ID : isom
File size : 7.44 MiB
Duration : 4mn 22s
Overall bit rate mode : Variable
Overall bit rate : 238 Kbps
Encoded date : UTC 2015-08-25 12:37:29
Tagged date : UTC 2015-08-25 12:37:29
Video
ID : 1
Format : AVC
Format/Info : Advanced Video Codec
Format profile : Baseline@L3.1
Format settings, CABAC : No
Format settings, ReFrames : 3 frames
Format settings, GOP : M=1, N=50
Codec ID : avc1
Codec ID/Info : Advanced Video Coding
Duration : 4mn 21s
Bit rate : 183 Kbps
Maximum bit rate : 1 461 Kbps
Width : 1 280 pixels
Height : 720 pixels
Display aspect ratio : 16:9
Frame rate mode : Constant
Frame rate : 29.970 fps
Color space : YUV
Chroma subsampling : 4:2:0
Bit depth : 8 bits
Scan type : Progressive
Bits/(Pixel*Frame) : 0.007
Stream size : 5.71 MiB (77%)
Writing library : Zencoder Video Encoding System
Encoded date : UTC 2015-08-25 12:36:51
Tagged date : UTC 2015-08-25 12:37:29
Color range : Limited
Color primaries : BT.709
Transfer characteristics : BT.709
Matrix coefficients : BT.709
Audio
ID : 2
Format : AAC
Format/Info : Advanced Audio Codec
Format profile : LC
Codec ID : 40
Duration : 4mn 22s
Bit rate mode : Variable
Bit rate : 52.8 Kbps
Maximum bit rate : 63.0 Kbps
Channel(s) : 2 channels
Channel positions : Front: L R
Sampling rate : 48.0 KHz
Compression mode : Lossy
Stream size : 1.65 MiB (22%)
Encoded date : UTC 2015-08-25 12:36:51
Tagged date : UTC 2015-08-25 12:37:29
General
Complete name : C:\Udemy - Algebra for Beginners\4_-_Linear_Equations\21_-_Balancing_Equations_with_variables_on_one_side.mp4
Format : MPEG-4
Format profile : Base Media
Codec ID : isom
File size : 6.68 MiB
Duration : 3mn 10s
Overall bit rate mode : Variable
Overall bit rate : 294 Kbps
Encoded date : UTC 2015-08-25 14:41:18
Tagged date : UTC 2015-08-25 14:41:18
Video
ID : 1
Format : AVC
Format/Info : Advanced Video Codec
Format profile : Baseline@L3.1
Format settings, CABAC : No
Format settings, ReFrames : 3 frames
Format settings, GOP : M=1, N=50
Codec ID : avc1
Codec ID/Info : Advanced Video Coding
Duration : 3mn 10s
Bit rate : 240 Kbps
Maximum bit rate : 3 499 Kbps
Width : 1 280 pixels
Height : 720 pixels
Display aspect ratio : 16:9
Frame rate mode : Constant
Frame rate : 29.970 fps
Color space : YUV
Chroma subsampling : 4:2:0
Bit depth : 8 bits
Scan type : Progressive
Bits/(Pixel*Frame) : 0.009
Stream size : 5.44 MiB (81%)
Writing library : Zencoder Video Encoding System
Encoded date : UTC 2015-08-25 14:40:45
Tagged date : UTC 2015-08-25 14:41:18
Color range : Limited
Color primaries : BT.709
Transfer characteristics : BT.709
Matrix coefficients : BT.709
Audio
ID : 2
Format : AAC
Format/Info : Advanced Audio Codec
Format profile : LC
Codec ID : 40
Duration : 3mn 10s
Bit rate mode : Variable
Bit rate : 51.7 Kbps
Maximum bit rate : 62.4 Kbps
Channel(s) : 2 channels
Channel positions : Front: L R
Sampling rate : 48.0 KHz
Compression mode : Lossy
Stream size : 1.18 MiB (18%)
Encoded date : UTC 2015-08-25 14:40:45
Tagged date : UTC 2015-08-25 14:41:18
General
Complete name : C:\Udemy - Algebra for Beginners\4_-_Linear_Equations\22_-_Solving_Equations_1_.mp4
Format : MPEG-4
Format profile : Base Media
Codec ID : isom
File size : 8.56 MiB
Duration : 4mn 19s
Overall bit rate mode : Variable
Overall bit rate : 277 Kbps
Encoded date : UTC 2015-08-17 14:58:22
Tagged date : UTC 2015-08-17 14:58:22
Video
ID : 1
Format : AVC
Format/Info : Advanced Video Codec
Format profile : Baseline@L3.1
Format settings, CABAC : No
Format settings, ReFrames : 3 frames
Codec ID : avc1
Codec ID/Info : Advanced Video Coding
Duration : 4mn 19s
Bit rate : 218 Kbps
Maximum bit rate : 3 473 Kbps
Width : 1 280 pixels
Height : 720 pixels
Display aspect ratio : 16:9
Frame rate mode : Constant
Frame rate : 29.970 fps
Color space : YUV
Chroma subsampling : 4:2:0
Bit depth : 8 bits
Scan type : Progressive
Bits/(Pixel*Frame) : 0.008
Stream size : 6.75 MiB (79%)
Writing library : Zencoder Video Encoding System
Encoded date : UTC 2015-08-17 14:57:42
Tagged date : UTC 2015-08-17 14:58:22
Color range : Limited
Color primaries : BT.709
Transfer characteristics : BT.709
Matrix coefficients : BT.709
Audio
ID : 2
Format : AAC
Format/Info : Advanced Audio Codec
Format profile : LC
Codec ID : 40
Duration : 4mn 19s
Bit rate mode : Variable
Bit rate : 55.8 Kbps
Maximum bit rate : 64.6 Kbps
Channel(s) : 2 channels
Channel positions : Front: L R
Sampling rate : 48.0 KHz
Compression mode : Lossy
Stream size : 1.73 MiB (20%)
Encoded date : UTC 2015-08-17 14:57:42
Tagged date : UTC 2015-08-17 14:58:22
General
Complete name : C:\Udemy - Algebra for Beginners\4_-_Linear_Equations\24_-_Solving_Equations_with_Variables_on_Both_Sides.mp4
Format : MPEG-4
Format profile : Base Media
Codec ID : isom
File size : 13.0 MiB
Duration : 8mn 6s
Overall bit rate mode : Variable
Overall bit rate : 224 Kbps
Encoded date : UTC 2015-08-22 09:55:06
Tagged date : UTC 2015-08-22 09:55:06
Video
ID : 1
Format : AVC
Format/Info : Advanced Video Codec
Format profile : Baseline@L3.1
Format settings, CABAC : No
Format settings, ReFrames : 3 frames
Codec ID : avc1
Codec ID/Info : Advanced Video Coding
Duration : 8mn 6s
Bit rate : 166 Kbps
Maximum bit rate : 1 085 Kbps
Width : 1 280 pixels
Height : 720 pixels
Display aspect ratio : 16:9
Frame rate mode : Constant
Frame rate : 29.970 fps
Color space : YUV
Chroma subsampling : 4:2:0
Bit depth : 8 bits
Scan type : Progressive
Bits/(Pixel*Frame) : 0.006
Stream size : 9.64 MiB (74%)
Writing library : Zencoder Video Encoding System
Encoded date : UTC 2015-08-22 09:53:54
Tagged date : UTC 2015-08-22 09:55:06
Color range : Limited
Color primaries : BT.709
Transfer characteristics : BT.709
Matrix coefficients : BT.709
Audio
ID : 2
Format : AAC
Format/Info : Advanced Audio Codec
Format profile : LC
Codec ID : 40
Duration : 8mn 6s
Bit rate mode : Variable
Bit rate : 54.8 Kbps
Maximum bit rate : 65.2 Kbps
Channel(s) : 2 channels
Channel positions : Front: L R
Sampling rate : 48.0 KHz
Compression mode : Lossy
Stream size : 3.18 MiB (24%)
Encoded date : UTC 2015-08-22 09:53:54
Tagged date : UTC 2015-08-22 09:55:06
General
Complete name : C:\Udemy - Algebra for Beginners\4_-_Linear_Equations\25_-_Solving_Equations_with_Variables_on_Both_Sides_Answers.mp4
Format : MPEG-4
Format profile : Base Media
Codec ID : isom
File size : 35.5 MiB
Duration : 17mn 33s
Overall bit rate mode : Variable
Overall bit rate : 283 Kbps
Encoded date : UTC 2015-09-17 13:01:19
Tagged date : UTC 2015-09-17 13:01:19
Video
ID : 1
Format : AVC
Format/Info : Advanced Video Codec
Format profile : Baseline@L3.1
Format settings, CABAC : No
Format settings, ReFrames : 3 frames
Format settings, GOP : M=1, N=50
Codec ID : avc1
Codec ID/Info : Advanced Video Coding
Duration : 17mn 33s
Bit rate : 230 Kbps
Maximum bit rate : 2 006 Kbps
Width : 1 280 pixels
Height : 720 pixels
Display aspect ratio : 16:9
Frame rate mode : Constant
Frame rate : 29.970 fps
Color space : YUV
Chroma subsampling : 4:2:0
Bit depth : 8 bits
Scan type : Progressive
Bits/(Pixel*Frame) : 0.008
Stream size : 28.8 MiB (81%)
Writing library : Zencoder Video Encoding System
Encoded date : UTC 2015-09-17 13:00:12
Tagged date : UTC 2015-09-17 13:01:20
Color range : Limited
Color primaries : BT.709
Transfer characteristics : BT.709
Matrix coefficients : BT.709
Audio
ID : 2
Format : AAC
Format/Info : Advanced Audio Codec
Format profile : LC
Codec ID : 40
Duration : 17mn 33s
Bit rate mode : Variable
Bit rate : 50.6 Kbps
Maximum bit rate : 62.6 Kbps
Channel(s) : 2 channels
Channel positions : Front: L R
Sampling rate : 48.0 KHz
Compression mode : Lossy
Stream size : 6.35 MiB (18%)
Encoded date : UTC 2015-09-17 13:00:12
Tagged date : UTC 2015-09-17 13:01:20
General
Complete name : C:\Udemy - Algebra for Beginners\4_-_Linear_Equations\26_-_Solving_Equations_Using_Algebra.mp4
Format : MPEG-4
Format profile : Base Media
Codec ID : isom
File size : 13.9 MiB
Duration : 5mn 50s
Overall bit rate mode : Variable
Overall bit rate : 332 Kbps
Encoded date : UTC 2015-09-23 08:38:46
Tagged date : UTC 2015-09-23 08:38:46
Video
ID : 1
Format : AVC
Format/Info : Advanced Video Codec
Format profile : Baseline@L3.1
Format settings, CABAC : No
Format settings, ReFrames : 3 frames
Format settings, GOP : M=1, N=50
Codec ID : avc1
Codec ID/Info : Advanced Video Coding
Duration : 5mn 50s
Bit rate : 278 Kbps
Maximum bit rate : 2 559 Kbps
Width : 1 280 pixels
Height : 720 pixels
Display aspect ratio : 16:9
Frame rate mode : Constant
Frame rate : 29.970 fps
Color space : YUV
Chroma subsampling : 4:2:0
Bit depth : 8 bits
Scan type : Progressive
Bits/(Pixel*Frame) : 0.010
Stream size : 11.6 MiB (84%)
Writing library : Zencoder Video Encoding System
Encoded date : UTC 2015-09-23 08:38:24
Tagged date : UTC 2015-09-23 08:38:46
Color range : Limited
Color primaries : BT.709
Transfer characteristics : BT.709
Matrix coefficients : BT.709
Audio
ID : 2
Format : AAC
Format/Info : Advanced Audio Codec
Format profile : LC
Codec ID : 40
Duration : 5mn 50s
Bit rate mode : Variable
Bit rate : 52.1 Kbps
Maximum bit rate : 60.5 Kbps
Channel(s) : 2 channels
Channel positions : Front: L R
Sampling rate : 48.0 KHz
Compression mode : Lossy
Stream size : 2.18 MiB (16%)
Encoded date : UTC 2015-09-23 08:38:24
Tagged date : UTC 2015-09-23 08:38:46
General
Complete name : C:\Udemy - Algebra for Beginners\4_-_Linear_Equations\27_-_Forming_and_Solving_Equations.mp4
Format : MPEG-4
Format profile : Base Media
Codec ID : isom
File size : 5.97 MiB
Duration : 2mn 49s
Overall bit rate mode : Variable
Overall bit rate : 296 Kbps
Encoded date : UTC 2015-09-30 15:26:49
Tagged date : UTC 2015-09-30 15:26:49
Video
ID : 1
Format : AVC
Format/Info : Advanced Video Codec
Format profile : Baseline@L3.1
Format settings, CABAC : No
Format settings, ReFrames : 3 frames
Format settings, GOP : M=1, N=50
Codec ID : avc1
Codec ID/Info : Advanced Video Coding
Duration : 2mn 49s
Bit rate : 241 Kbps
Maximum bit rate : 1 873 Kbps
Width : 1 280 pixels
Height : 720 pixels
Display aspect ratio : 16:9
Frame rate mode : Constant
Frame rate : 29.970 fps
Color space : YUV
Chroma subsampling : 4:2:0
Bit depth : 8 bits
Scan type : Progressive
Bits/(Pixel*Frame) : 0.009
Stream size : 4.86 MiB (81%)
Writing library : Zencoder Video Encoding System
Encoded date : UTC 2015-09-30 15:26:23
Tagged date : UTC 2015-09-30 15:26:49
Color range : Limited
Color primaries : BT.709
Transfer characteristics : BT.709
Matrix coefficients : BT.709
Audio
ID : 2
Format : AAC
Format/Info : Advanced Audio Codec
Format profile : LC
Codec ID : 40
Duration : 2mn 49s
Bit rate mode : Variable
Bit rate : 52.2 Kbps
Maximum bit rate : 62.1 Kbps
Channel(s) : 2 channels
Channel positions : Front: L R
Sampling rate : 48.0 KHz
Compression mode : Lossy
Stream size : 1.05 MiB (18%)
Encoded date : UTC 2015-09-30 15:26:23
Tagged date : UTC 2015-09-30 15:26:49
General
Complete name : C:\Udemy - Algebra for Beginners\4_-_Linear_Equations\29_-_MENSA_Maths_Pyramid_Answer.mp4
Format : MPEG-4
Format profile : Base Media
Codec ID : isom
File size : 6.94 MiB
Duration : 4mn 36s
Overall bit rate mode : Variable
Overall bit rate : 210 Kbps
Encoded date : UTC 2015-09-07 11:46:13
Tagged date : UTC 2015-09-07 11:46:13
Video
ID : 1
Format : AVC
Format/Info : Advanced Video Codec
Format profile : Baseline@L3.1
Format settings, CABAC : No
Format settings, ReFrames : 3 frames
Format settings, GOP : M=1, N=50
Codec ID : avc1
Codec ID/Info : Advanced Video Coding
Duration : 4mn 36s
Bit rate : 151 Kbps
Maximum bit rate : 3 347 Kbps
Width : 1 280 pixels
Height : 720 pixels
Display aspect ratio : 16:9
Frame rate mode : Constant
Frame rate : 29.970 fps
Color space : YUV
Chroma subsampling : 4:2:0
Bit depth : 8 bits
Scan type : Progressive
Bits/(Pixel*Frame) : 0.005
Stream size : 4.97 MiB (72%)
Writing library : Zencoder Video Encoding System
Encoded date : UTC 2015-09-07 11:45:33
Tagged date : UTC 2015-09-07 11:46:13
Color range : Limited
Color primaries : BT.709
Transfer characteristics : BT.709
Matrix coefficients : BT.709
Audio
ID : 2
Format : AAC
Format/Info : Advanced Audio Codec
Format profile : LC
Codec ID : 40
Duration : 4mn 36s
Bit rate mode : Variable
Bit rate : 56.9 Kbps
Maximum bit rate : 63.0 Kbps
Channel(s) : 2 channels
Channel positions : Front: L R
Sampling rate : 48.0 KHz
Compression mode : Lossy
Stream size : 1.88 MiB (27%)
Encoded date : UTC 2015-09-07 11:45:33
Tagged date : UTC 2015-09-07 11:46:13

Постеры

Соцсети

 

Статистика

Автор: Stepan
Добавлен: 08 апр 2018, 00:11
Размер: 244.13 МБ
Размер: 255 987 060 байт
Сидеров: 1
Личеров: 1
Скачали: 0
Здоровье: 100%
Раздающих: 100%
Статус:
Скорость скачивания: 0 байт/сек
Скорость раздачи: 0 байт/сек
Последний сидер: 5 месяцев 18 дней 22 часа 30 минут 29 секунд назад
Последний личер: 5 месяцев 18 дней 22 часа 30 минут 29 секунд назад
Приватный: Нет (DHT включён)
Школьникам, студентам и педагогам Скачать торрент
Скачать торрент
[ Размер 21.78 КБ / Просмотров 2 ]

Поделиться



  • Похожие торренты
    Ответы
    Просмотры
    Последнее сообщение

Вернуться в Школьникам, студентам и педагогам