Сообщение

Универсариум. Практики конфликтования: Конфликтовать нельзя жить мирно [2016, Психология, WEBRip, RUS] (Видеокурс)

Сообщение Stepan » 08 апр 2018, 00:17

Универсариум. Практики конфликтования: Конфликтовать нельзя жить мирно [2016, Психология, WEBRip, RUS] (Видеокурс)
Страна: Россия
Издатель: http://universarium.org/
Тематика: Психология
Тип раздаваемого материала: Видеоурок
Продолжительность: 06:16:52 (32 отдельных ролика + промо-ролик курса)
Год выпуска: 2016
Язык: Русский
Описание: Видеокурс по конфликтованию
О курсе:
Что наша жизнь – конфликт, а точнее попытки найти выход из конфликтов, которые подстерегают нас на жизненном пути. Ведь конструктивный конфликт - это способ разрешения противоречий при столкновении двух или более интересов, целей, мнений, оценок, а такие ситуации встречаются в нашей жизни очень часто, почти на каждом шагу: внутриличностный конфликт, межличностные конфликт, межгрупповые конфликты. Существуют стереотипы, исходя из которых, считается, что конфликт – это плохо, а вступать в конфликты, по меньшей мере, неблагоразумно, что конфликт приводит только к потере эмоциональных и материальных ресурсов, затраченных на противоборство; ухудшение социально-психологического климата; уменьшение степени сотрудничества между участниками взаимодействия после завершения конфликта; сложное восстановление отношений. Многие из нас выросли в атмосфере конфликтофобии, то есть с необходимостью избегания конфликтов, сглаживания ситуации. Стоит ли любой ценой избегать конфликтов? Ведь надо помнить, что конфликт может выступать как механизм разрешения противоречий в действии, обеспечивающий тем самым развитие человека и общества. Ряд исследователей видят в конфликтах много положительных последствий для человека: в противоборстве люди могут лучше узнать себя и друг друга, конфликт стимулирует взаимопонимание; способствует сплочению групп и коллективов; повышает активность людей; стимулирует развитие личности, повышение чувства ответственности, осознание своей значимости. Так где же все же стоит поставить запятую в предложении «Конфликтовать нельзя жить мирно»?
Модуль 1. Модели социальных взаимодействий (6 видеолекций, презентация, список литературы).
Понятие и система социальных взаимодействий
Теория социального действия в социологии
Модели анализа межличностного взаимодействия
Социальные отношения
Социальный контроль
Социальные институты и социальные взаимодействия в конфликте
Модуль 2. Личность в конфликте (5 видеолекций, презентация, список литературы).
Конфликтофобия и конфликтная компетентность
Основные психологические теории поведения личности в конфликтной ситуации
Функции конфликта
Внутриличностный конфликт
Конфликтная личность
Модуль 3. Портрет конфликта в развитии (5 видеолекций, презентация, список литературы).
Понятие конфликта
Исторический анализ конфликтов и условия возникновения конфликтов
Динамика конфликта
Моделирование конфликта
Выбор стратегии и тактики решения конфликта
Модуль 4. Стили и тактики поведения в конфликте (5 видеолекций, презентация, список литературы).
Основные стили поведения в конфликте
Основные тактики поведения в конфликте
Конфликтогены и манипуляторы
Манипуляции в конфликте
Противодействие манипуляторам
Модуль 5. Управление конфликтом: начнем с себя (5 видеолекций, презентация, список литературы).
Управление эмоциональным состоянием
Управление поведением
Медиация в конфликте
Деловое общение
Правила ведения переговоров
Модуль 6. Специфика отдельных видов конфликта (4 из 6 видеолекций, презентация, список литературы).
Классификация конфликтов
Семейные конфликты
Политические конфликты
Экономические и организационные конфликты
Конфликты в сфере образования
Этноконфессиональные конфликты
Анна Юрьевна Ардальянова — кандидат социологических наук, доцент кафедры социальных наук Школы гуманитарных наук Дальневосточного федерального университета.
Анна Викторовна Винокурова — кандидат социологических наук, доцент кафедры социальных наук Школы гуманитарных наук Дальневосточного федерального университета; Автор более 60 научных работ, 1 учебного пособия «Теория и практика связей с общественностью» (Владивосток, 2009) и 7 учебно-методических разработок по социологии конфликтологии.
Светлана Владимировна Гончарова — кандидат социологических наук, доцент кафедры социальных наук Школы гуманитарных наук Дальневосточного федерального университета.
Елена Юрьевна Костина — кандидат социологических наук, доцент кафедры социальных наук Школы гуманитарных наук Дальневосточного федерального университета.
Илья Владимирович Купряшкин — кандидат философских наук, старший преподаватель кафедры социальных наук Школы гуманитарных наук Дальневосточного федерального университета.
в доступной и наглядной форме научить заинтересованную аудиторию анализировать конфликты в нашей жизни и выбирать оптимальные стратегии и тактики поведения в них.
Видеокурс доступен на сайте издателя ограниченное время. Штатных средств для его загрузки на сайте нет.

Качество: WEBRip
Формат: MP4
Видео: AVC1, 1280x720, 750 kbps, 25 fps
Аудио: AAC, 128 kbps, 48 kHz, 2 ch
Код: Выделить всё
Общее
Полное имя                               : D:\Video\Обучение\Практики конфликтования. Конфликтовать нельзя жить мирно (Универсариум)\Модуль 1. Модели социальных взаимодействий\15011-1-1_720p.mp4
Формат                                   : MPEG-4
Профиль формата                          : Base Media
Идентификатор кодека                     : isom (isom/iso2/avc1/mp41)
Размер файла                             : 70,0 Мбайт
Продолжительность                        : 11 м. 3 с.
Общий поток                              : 886 Кбит/сек
Программа кодирования                    : Lavf56.25.101
Видео
Идентификатор                            : 1
Формат                                   : AVC
Формат/Информация                        : Advanced Video Codec
Профиль формата                          : High@L3.1
Параметр CABAC формата                   : Да
Параметр ReFrames формата                : 4 кадра
Идентификатор кодека                     : avc1
Идентификатор кодека/Информация          : Advanced Video Coding
Продолжительность                        : 11 м. 3 с.
Битрейт                                  : 750 Кбит/сек
Ширина                                   : 1280 пикселей
Высота                                   : 720 пикселей
Соотношение сторон                       : 16:9
Режим частоты кадров                     : Постоянный
Частота кадров                           : 25,000 кадров/сек
Цветовое пространство                    : YUV
Субдискретизация насыщенности            : 4:2:0
Битовая глубина                          : 8 бит
Тип развёртки                            : Прогрессивная
Бит/(Пиксели*Кадры)                      : 0.033
Размер потока                            : 59,4 Мбайт (85%)
Библиотека кодирования                   : x264 core 142 r2495 6a301b6
Настройки программы                      : cabac=1 / ref=3 / deblock=1:0:0 / analyse=0x3:0x113 / me=hex / subme=7 / psy=1 / psy_rd=1.00:0.00 / mixed_ref=1 / me_range=16 / chroma_me=1 / trellis=1 / 8x8dct=1 / cqm=0 / deadzone=21,11 / fast_pskip=1 / chroma_qp_offset=-2 / threads=24 / lookahead_threads=4 / sliced_threads=0 / nr=0 / decimate=1 / interlaced=0 / bluray_compat=0 / constrained_intra=0 / bframes=3 / b_pyramid=2 / b_adapt=1 / b_bias=0 / direct=1 / weightb=1 / open_gop=0 / weightp=2 / keyint=250 / keyint_min=25 / scenecut=40 / intra_refresh=0 / rc_lookahead=40 / rc=2pass / mbtree=1 / bitrate=750 / ratetol=1.0 / qcomp=0.60 / qpmin=0 / qpmax=69 / qpstep=4 / cplxblur=20.0 / qblur=0.5 / ip_ratio=1.40 / aq=1:1.00
Язык                                     : English
Аудио
Идентификатор                            : 2
Формат                                   : AAC
Формат/Информация                        : Advanced Audio Codec
Профиль формата                          : LC
Идентификатор кодека                     : 40
Продолжительность                        : 11 м. 3 с.
Вид битрейта                             : Постоянный
Битрейт                                  : 128 Кбит/сек
Каналы                                   : 2 канала
Расположение каналов                     : Front: L R
Частота                                  : 48,0 КГц
Частота кадров                           : 46,875 кадров/сек (1024 spf)
Метод сжатия                             : С потерями
Размер потока                            : 10,2 Мбайт (14%)
Язык                                     : English
Default                                  : Да
Alternate group                          : 1
Раздача обновлена 25.12.2016. Добавлены лекции 5 и 6 в модуле 6.

Постеры

Соцсети

 

Статистика

Автор: Stepan
Добавлен: 08 апр 2018, 00:17
Размер: 2.34 ГБ
Размер: 2 516 968 426 байт
Сидеров: 0
Личеров: 0
Скачали: 0
Здоровье: 0%
Статус:
Скорость скачивания: 0 байт/сек
Скорость раздачи: 0 байт/сек
Последний сидер: Нет
Последний личер: Нет
Приватный: Нет (DHT включён)
Школьникам, студентам и педагогам Скачать торрент
Скачать торрент
[ Размер 17.86 КБ / Просмотров 0 ]

Поделиться



  • Похожие торренты
    Ответы
    Просмотры
    Последнее сообщение

Вернуться в Школьникам, студентам и педагогам