Сообщение

Музыка и Математика / TTC - How Music and Mathematics Relate [Математика, музыка, WEBRip, ENG] (Видеоурок)

Сообщение Stepan » 08 апр 2018, 00:17

Музыка и Математика / TTC - How Music and Mathematics Relate
Страна: USA
Тематика: Математика, музыка
Тип раздаваемого материала: Видеоурок
Продолжительность: 540 minutes
Язык: Английский
Перевод: Отсутствует
Описание:"Проверяем алгеброй гармонию". Серия лекций о взаимосвязи математики и музыки. Очень интересно и для музыкантов и для математиков
Gain new perspective on two of the greatest achievements of human culture—music and math—and the fascinating connections that will help you more fully appreciate the intricacies of both. Great minds have long sought to understand the relationship between music and mathematics. On the surface, they seem very different but music and mathematics are connected in fundamental ways. Both involve patterns, structures, and relationships. Both generate ideas of great beauty and elegance. Music is a fertile testing ground for mathematical principles, while mathematics explains the sounds instruments make and how composers put those sounds together. Moreover, the practitioners of both share many qualities, including abstract thinking, creativity, and intense focus. Understanding the connections between music and mathematics helps you appreciate both, even if you have no special ability in either field—from knowing the mathematics behind tuning an instrument to understanding the features that define your favorite pieces. By exploring the mathematics of music, you also learn why non-Western music sounds so different, gain insight into the technology of modern sound reproduction, and start to hear the world around you in exciting new ways.
Among the insights offered by the study of music and mathematics together are these:
• Harmonic series
• "Air on the G String"
• Auditory illusions
• Atonal music
In 12-45 minute lectures, you get a new perspective on music and mathematics which are packed with information and musical examples from Bach, Mozart, and Tchaikovsky to haunting melodies from China, India, and Indonesia. No expertise in either music or higher-level mathematics is required to appreciate this astonishing alliance between art and science. Course instructor and educator David Kung, Professor of Mathematics at St. Mary's College of Maryland, has the background to teach both of these subjects.
General
Complete name : F:\TTC - How Music and Mathematics Relate\01 Overtones—Symphony in a Single Note.mp4
Format : MPEG-4
Codec ID : M4V (isom/iso2)
File size : 315 MiB
Duration : 47 min 56 s
Overall bit rate mode : Variable
Overall bit rate : 918 kb/s
Movie name : DVD_1_MUSIC_AND_MATH.Title3.DVDRip
Album : DVD_1_MUSIC_AND_MATH
Writing application : Lavf53.21.0
Video
ID : 1
Format : MPEG-4 Visual
Format profile : Simple@L1
Format settings, BVOP : No
Format settings, QPel : No
Format settings, GMC : No warppoints
Format settings, Matrix : Default (H.263)
Codec ID : 20
Duration : 47 min 56 s
Bit rate mode : Constant
Bit rate : 818 kb/s
Width : 426 pixels
Height : 320 pixels
Display aspect ratio : 4:3
Frame rate mode : Constant
Frame rate : 29.970 (30000/1001) FPS
Color space : YUV
Chroma subsampling : 4:2:0
Bit depth : 8 bits
Scan type : Progressive
Compression mode : Lossy
Bits/(Pixel*Frame) : 0.200
Stream size : 281 MiB (89%)
Writing library : Lavc53.36.0
Audio
ID : 2
Format : AAC
Format/Info : Advanced Audio Codec
Format profile : LC
Codec ID : 40
Duration : 47 min 54 s
Bit rate mode : Variable
Bit rate : 96.0 kb/s
Channel(s) : 2 channels
Channel positions : Front: L R
Sampling rate : 48.0 kHz
Frame rate : 46.875 FPS (1024 SPF)
Compression mode : Lossy
Stream size : 32.4 MiB (10%)
Default : Yes
Alternate group : 1
Качество: WEBRip
Формат: MP4
Видео кодек: MPEG-4
Аудио кодек: AAC
Видео: mp4v 426x320 29.97fps 818 kb/s
Аудио: AAC 48000Hz stereo 94kbps

Постеры

Соцсети

 

Статистика

Автор: Stepan
Добавлен: 08 апр 2018, 00:17
Размер: 3.55 ГБ
Размер: 3 817 080 722 байт
Сидеров: 0
Личеров: 0
Скачали: 0
Здоровье: 0%
Статус:
Скорость скачивания: 0 байт/сек
Скорость раздачи: 0 байт/сек
Последний сидер: Нет
Последний личер: Нет
Приватный: Нет (DHT включён)
Школьникам, студентам и педагогам Скачать торрент
Скачать торрент
[ Размер 36.86 КБ / Просмотров 0 ]

Поделиться



  • Похожие торренты
    Ответы
    Просмотры
    Последнее сообщение

Вернуться в Школьникам, студентам и педагогам