Сообщение

Теория Игр / Game Theory [2015, Экономика, WEBRip, RUS] (Видеоурок, Coursera)

Сообщение Stepan » 08 апр 2018, 00:19

Теория Игр / Game Theory
Страна: Россия
Тематика: Экономика
Тип раздаваемого материала: Coursera
Продолжительность: 10:54:16
Год выпуска: 2015
Язык: Русский
Перевод: Не требуется
Описание: В рамках этого курса мы изучим базовые понятия и концепции теории игр и узнаем об их практическом применении, познакомимся с историей этой замечательной науки и поговорим о современных исследованиях в этой области.
Качество: WEBRip
Формат: MP4
Аудио кодек: AAC
Видео: H264, 960x540, 182 kbps, 29.970 fps
Аудио: AAC, 128 kbps, 44,1 kHz, 2 ch
Общее
Полное имя : F:\теория игр\1 - 1 - 1.1. Что изучает теория игр_ (8_56).mp4
Формат : MPEG-4
Профиль формата : Base Media
Идентификатор кодека : isom
Размер файла : 20,4 Мбайт
Продолжительность : 8 м. 57 с.
Общий поток : 318 Кбит/сек
Программа кодирования : Lavf55.19.104
Видео
Идентификатор : 1
Формат : AVC
Формат/Информация : Advanced Video Codec
Профиль формата : Main@L3.1
Параметр CABAC формата : Да
Параметр ReFrames формата : 4 кадра
Идентификатор кодека : avc1
Идентификатор кодека/Информация : Advanced Video Coding
Продолжительность : 8 м. 56 с.
Битрейт : 182 Кбит/сек
Ширина : 960 пикселей
Высота : 540 пикселей
Соотношение сторон : 16:9
Режим частоты кадров : Постоянный
Частота кадров : 29,970 кадров/сек
Цветовое пространство : YUV
Субдискретизация насыщенности : 4:2:0
Битовая глубина : 8 бит
Тип развёртки : Прогрессивная
Бит/(Пиксели*Кадры) : 0.012
Размер потока : 11,6 Мбайт (57%)
Библиотека кодирования : x264 core 138
Настройки программы : cabac=1 / ref=3 / deblock=1:0:0 / analyse=0x1:0x111 / me=hex / subme=7 / psy=1 / psy_rd=1.00:0.00 / mixed_ref=1 / me_range=16 / chroma_me=1 / trellis=1 / 8x8dct=0 / cqm=0 / deadzone=21,11 / fast_pskip=1 / chroma_qp_offset=-2 / threads=12 / lookahead_threads=2 / sliced_threads=0 / nr=0 / decimate=1 / interlaced=0 / bluray_compat=0 / constrained_intra=0 / bframes=3 / b_pyramid=2 / b_adapt=1 / b_bias=0 / direct=1 / weightb=1 / open_gop=0 / weightp=2 / keyint=250 / keyint_min=25 / scenecut=40 / intra_refresh=0 / rc_lookahead=40 / rc=crf / mbtree=1 / crf=28.0 / qcomp=0.60 / qpmin=0 / qpmax=69 / qpstep=4 / ip_ratio=1.40 / aq=1:1.00
Аудио
Идентификатор : 2
Формат : AAC
Формат/Информация : Advanced Audio Codec
Профиль формата : LC
Идентификатор кодека : 40
Продолжительность : 8 м. 57 с.
Duration_LastFrame : -3 мс.
Вид битрейта : Постоянный
Битрейт : 128 Кбит/сек
Каналы : 2 канала
Расположение каналов : Front: L R
Частота : 44,1 КГц
Метод сжатия : С потерями
Размер потока : 8,19 Мбайт (40%)
Язык : English


Постеры

Соцсети

 

Статистика

Автор: Stepan
Добавлен: 08 апр 2018, 00:19
Размер: 1.56 ГБ
Размер: 1 674 687 013 байт
Сидеров: 0
Личеров: 0
Скачали: 0
Здоровье: 0%
Статус:
Скорость скачивания: 0 байт/сек
Скорость раздачи: 0 байт/сек
Последний сидер: Нет
Последний личер: Нет
Приватный: Нет (DHT включён)
Школьникам, студентам и педагогам Скачать торрент
Скачать торрент
[ Размер 25.74 КБ / Просмотров 1 ]

Поделиться



Вернуться в Школьникам, студентам и педагогам