Сообщение

Краткая история человечества / Brief History of Humankind (Coursera) [2013, История, WEBRip, ENG] (Видеоурок)

Сообщение Stepan » 08 апр 2018, 00:20

Краткая история человечества / Brief History of Humankind
Страна: Израиль
Тематика: История
Тип раздаваемого материала: Видеоурок
Продолжительность: 26:39:17
Год выпуска: 2013
Язык: Английский
Перевод: Отсутствует
Описание: Курс краткой истории человечества от доктора Харрари, Иерусалим, Израиль.
Качество: WEBRip
Формат: MP4
Видео кодек: H.264
Аудио кодек: AAC
Видео: H264, 960x540@25, ~160kb/sec
Аудио: aac, ~100 kbps, 48kHz, stereo
Код: Выделить всё
General
Complete name                            : 05-01 History Biggest Fraud - Segment 1 [21-08].mp4
Format                                   : MPEG-4
Format profile                           : Base Media
Codec ID                                 : isom
File size                                : 40.8 MiB
Duration                                 : 21mn 8s
Overall bit rate mode                    : Variable
Overall bit rate                         : 270 Kbps
Writing application                      : Lavf52.99.1
Video
ID                                       : 1
Format                                   : AVC
Format/Info                              : Advanced Video Codec
Format profile                           : High@L3.0
Format settings, CABAC                   : Yes
Format settings, ReFrames                : 4 frames
Codec ID                                 : avc1
Codec ID/Info                            : Advanced Video Coding
Duration                                 : 21mn 8s
Bit rate                                 : 164 Kbps
Width                                    : 960 pixels
Height                                   : 540 pixels
Display aspect ratio                     : 16:9
Frame rate mode                          : Constant
Frame rate                               : 25.000 fps
Color space                              : YUV
Chroma subsampling                       : 4:2:0
Bit depth                                : 8 bits
Scan type                                : Progressive
Bits/(Pixel*Frame)                       : 0.013
Stream size                              : 24.8 MiB (61%)
Writing library                          : x264 core 114 r1913 5fd3dce
Language                                 : English
Encoding settings : cabac=1 / ref=1 / deblock=1:0:0 / analyse=0x3:0x113 / me=hex / subme=2 / psy=1 / psy_rd=0.00:0.00 / mixed_ref=0 / me_range=16 / chroma_me=1 / trellis=0 / 8x8dct=1 / cqm=0 / deadzone=21,11 / fast_pskip=1 / chroma_qp_offset=0 / threads=3 / sliced_threads=0 / nr=0 / decimate=1 / interlaced=0 / constrained_intra=0 / bframes=3 / b_pyramid=2 / b_adapt=1 / b_bias=0 / direct=1 / weightb=1 / open_gop=0 / weightp=0 / keyint=250 / keyint_min=25 / scenecut=40 / intra_refresh=0 / rc_lookahead=10 / rc=crf / mbtree=1 / crf=28.0 / qcomp=0.60 / qpmin=0 / qpmax=69 / qpstep=4 / ip_ratio=1.41 / aq=1:1.00
Код: Выделить всё
Audio
ID                                       : 2
Format                                   : AAC
Format/Info                              : Advanced Audio Codec
Format profile                           : LC
Codec ID                                 : 40
Duration                                 : 21mn 8s
Bit rate mode                            : Variable
Bit rate                                 : 100 Kbps
Channel(s)                               : 2 channels
Channel positions                        : Front: L R
Sampling rate                            : 48.0 KHz
Compression mode                         : Lossy
Stream size                              : 15.2 MiB (37%)
Language                                 : English

Постеры

Соцсети

 

Статистика

Автор: Stepan
Добавлен: 08 апр 2018, 00:20
Размер: 3.92 ГБ
Размер: 4 204 323 642 байт
Сидеров: 0
Личеров: 0
Скачали: 0
Здоровье: 0%
Статус:
Скорость скачивания: 0 байт/сек
Скорость раздачи: 0 байт/сек
Последний сидер: Нет
Последний личер: Нет
Приватный: Нет (DHT включён)
Школьникам, студентам и педагогам Скачать торрент
Скачать торрент
[ Размер 44.71 КБ / Просмотров 0 ]

Поделиться



  • Похожие торренты
    Ответы
    Просмотры
    Последнее сообщение

Вернуться в Школьникам, студентам и педагогам