Сообщение

Как стать настоящим журналистом и писать статьи на первые полосы [2012, Журналистика, WEBRip, RUS] (Видеоурок)

Сообщение Stepan » 08 апр 2018, 00:20

Как стать настоящим журналистом и писать статьи на первые полосы
Страна: Россия
Тематика: Журналистика
Тип раздаваемого материала: Видеоурок
Продолжительность: 00:58:32
Год выпуска: 2012
Язык: Русский
Перевод: Не требуется
Описание: Практический курс для начинающих журналистов, подготовленный Александром Гришиным - журналистом с опытом работы в газетах «Ведомости», «КоммерсантЪ», телекомпании «НТВ» и пр., автором статей для пишущих людей в журнале «Редактор»
Доп. информация: Ссылка на рекламный ролик курса (тизер)
Качество: WEBRip
Формат: MP4
Видео кодек: H.264
Аудио кодек: AAC
Видео: 960x540, 30 fps, 1 218 kbps
Аудио: 44.1 kHz, stereo, 251 kbps
General
Format : MPEG-4
Format profile : Base Media / Version 2
Codec ID : mp42
File size : 617 MiB
Duration : 58mn 31s
Overall bit rate mode : Variable
Overall bit rate : 1 473 Kbps
Video
ID : 1
Format : AVC
Format/Info : Advanced Video Codec
Format profile : Main@L3.1
Format settings, CABAC : Yes
Format settings, ReFrames : 5 frames
Format settings, GOP : M=4, N=25
Codec ID : avc1
Codec ID/Info : Advanced Video Coding
Duration : 58mn 31s
Bit rate mode : Variable
Bit rate : 1 218 Kbps
Width : 960 pixels
Height : 540 pixels
Display aspect ratio : 16:9
Frame rate mode : Constant
Frame rate : 30.000 fps
Color space : YUV
Chroma subsampling : 4:2:0
Bit depth : 8 bits
Scan type : Progressive
Bits/(Pixel*Frame) : 0.078
Stream size : 510 MiB (83%)
Color primaries : BT.709
Transfer characteristics : BT.709
Matrix coefficients : BT.601
Audio
ID : 2
Format : AAC
Format/Info : Advanced Audio Codec
Format profile : LC
Codec ID : 40
Duration : 58mn 31s
Bit rate mode : Variable
Bit rate : 251 Kbps
Maximum bit rate : 406 Kbps
Channel(s) : 2 channels
Channel positions : Front: L R
Sampling rate : 44.1 KHz
Compression mode : Lossy
Delay relative to video : 67ms
Stream size : 105 MiB (17%)

Постеры

Соцсети

 

Статистика

Автор: Stepan
Добавлен: 08 апр 2018, 00:20
Размер: 616.75 МБ
Размер: 646 709 517 байт
Сидеров: 0
Личеров: 0
Скачали: 0
Здоровье: 0%
Статус:
Скорость скачивания: 0 байт/сек
Скорость раздачи: 0 байт/сек
Последний сидер: Нет
Последний личер: Нет
Приватный: Нет (DHT включён)
Школьникам, студентам и педагогам Скачать торрент
Скачать торрент
[ Размер 24.55 КБ / Просмотров 0 ]

Поделиться



Вернуться в Школьникам, студентам и педагогам