Сообщение

НаучФильм Серия Физика Раздел Механика [1955-1987, учебный для ВУЗов, VHSRip, RUS]

Сообщение Stepan » 08 апр 2018, 00:21

НаучФильм Серия Физика Раздел Механика [1955-1987]
Страна: СССР
Жанр: учебный для ВУЗов
Описание:
НаучФильм -Серия Физика: Раздел Механика. Рекомендовано для высших учебных заведений.
1. Плоское движение
Информация из-за давности и плохого качества пленки о годе выпуска и киностудии не сохранилась
Длительность: 9.17 мин
2. Гравитационное поле
"КиевНаучФильм" 1987 г
Автор сценария: А.Ф. Катков
Режиссер: Ю. Бадьянов
Оператор: В.Белоруссов
Научный консультант: д.физ-мат.н. профессор Т.Д.Шермергор
Длительность: 10 мин
3. Основные задачи динамики
"ЦентрНаучФильм"1985 г
В фильме использованы работы д.физ.-мат. наук М.П.Харламова и д.физ.-мат. наук А.Т.Фоменко
Автор сценария: П.Шермергор
Режиссер: Л.Чернявский
Оператор: Л.Зильберг
Консультант: к.физ-мат.н. Н.Г. Апыхтин
Длительность: 20 мин
4. Работа и энергия
Автор сценария: В.Демин, Л.Чернявский
Режиссер: А.Поливанов
Оператор: М.Трусов
Консультанты: д.физ-мат.н. Н.П. Калашников, к. физ-мат.н. И.С.Колотов
Длительность: 9.48 мин
5. Силы инерции
Режиссер: И.Дубинская
Оператор: И.Мельников
Консультанты: к.физ-мат.н. Н.Г. Апыхтин, к.физ-мат.н. Н.Г. Колесников
1980г
Длительность: 10 мин
6.Вынужденные колебания материальной точки
Производство киностудии учебных фильмов Киевского университета им. Т.Г. Шевченко 1972г
Автор сценария: Г.Я.Мищук
Консультант: Т.В.Путята
Режиссер: Н.Кирсенко
Операторы: Т.Панкова, Г.Чумак
Длительность: 5.15 мин
7. Центр инерции, простейшие виды движения, механические перемещения твердых тел
Киевская киностудия научно-популярных фильмов 1979 г
Длительность: 27 мин
8. Затухающие колебания материальной точки
Длительность: 6.13 мин
9. Понятие о гироскопе
Автор сценария: к.физ-мат.н., доцент Н.Г.Апыхтин
Научный консультант: д.тех. наук, профессор Г.Д.Блюмин
Режиссер: Т.Шестакова
Оператор: А.Илличевский
Длительность: 20 мин
10. Свободные колебания механических систем
ВузФильм. Киевская киностудия научно-популярных фильмов 1972 г
Длительность: 18 мин
11. Фрагменты по статике и кинематике
Киевская киностудия научно-популярных фильмов 1955г
Автор сценария: Л.Гурман
Консультанты: д. физ-мат.н. И.Веселовский, Л.Гурман
Режиссер: И.Лазарчук
Длительность: 7.54 мин
Качество: VHSRip
Формат: MPEG
Видео кодек: MPEG1
Аудио кодек: MPEG Audio
Видео: 352х288 MPEG 1150 кбит/с
Аудио: MPEG-1 Audio layer 2 224 кбит/с 2 канала 44 КГц

Общее
Полное имя : \\NauchFilm_mechanics\01_Plane_motion.mpg
Формат : MPEG-PS
Размер файла : 92,4 Мбайт
Продолжительность : 9 м. 17 с.
Общий поток : 1392 Кбит/сек
Видео
Идентификатор : 224 (0xE0)
Формат : MPEG Video
Версия формата : Version 1
Параметр BVOP формата : Да
Параметр матрицы формата : Выборочная
Продолжительность : 9 м. 17 с.
Битрейт : 1140 Кбит/сек
Максимальный битрейт : 1150 Кбит/сек
Ширина : 352 пикселя
Высота : 288 пикселей
Соотношение сторон : 4:3
Частота кадров : 25,000 кадров/сек
Стандарт вещания : PAL
Цветовое пространство : YUV
Битовая глубина : 8 бит
Тип развёртки : Прогрессивная
Метод сжатия : С потерями
Бит/(Пиксели*Кадры) : 0.450
Размер потока : 75,7 Мбайт (82%)
Аудио
Идентификатор : 192 (0xC0)
Формат : MPEG Audio
Версия формата : Version 1
Профиль формата : Layer 2
Продолжительность : 9 м. 17 с.
Вид битрейта : Постоянный
Битрейт : 224 Кбит/сек
Каналы : 2 канала
Частота : 44,1 КГц
Метод сжатия : С потерями
Размер потока : 14,9 Мбайт (16%)
Общее
Полное имя : \\NauchFilm_mechanics\02_Gravitational_field.mpg
Формат : MPEG-PS
Размер файла : 107 Мбайт
Продолжительность : 10 м.
Общий поток : 1392 Кбит/сек
Видео
Идентификатор : 224 (0xE0)
Формат : MPEG Video
Версия формата : Version 1
Параметр BVOP формата : Да
Параметр матрицы формата : Выборочная
Продолжительность : 10 м.
Битрейт : 1140 Кбит/сек
Максимальный битрейт : 1150 Кбит/сек
Ширина : 352 пикселя
Высота : 288 пикселей
Соотношение сторон : 4:3
Частота кадров : 25,000 кадров/сек
Стандарт вещания : PAL
Цветовое пространство : YUV
Битовая глубина : 8 бит
Тип развёртки : Прогрессивная
Метод сжатия : С потерями
Бит/(Пиксели*Кадры) : 0.450
Размер потока : 87,7 Мбайт (82%)
Аудио
Идентификатор : 192 (0xC0)
Формат : MPEG Audio
Версия формата : Version 1
Профиль формата : Layer 2
Продолжительность : 10 м.
Вид битрейта : Постоянный
Битрейт : 224 Кбит/сек
Каналы : 2 канала
Частота : 44,1 КГц
Метод сжатия : С потерями
Размер потока : 17,2 Мбайт (16%)
Общее
Полное имя : \\NauchFilm_mechanics\03_Tasks_of_dinamics.mpg
Формат : MPEG-PS
Размер файла : 200 Мбайт
Продолжительность : 20 м.
Общий поток : 1392 Кбит/сек
Видео
Идентификатор : 224 (0xE0)
Формат : MPEG Video
Версия формата : Version 1
Параметр BVOP формата : Да
Параметр матрицы формата : Выборочная
Продолжительность : 20 м.
Битрейт : 1140 Кбит/сек
Максимальный битрейт : 1150 Кбит/сек
Ширина : 352 пикселя
Высота : 288 пикселей
Соотношение сторон : 4:3
Частота кадров : 25,000 кадров/сек
Стандарт вещания : PAL
Цветовое пространство : YUV
Битовая глубина : 8 бит
Тип развёртки : Прогрессивная
Метод сжатия : С потерями
Бит/(Пиксели*Кадры) : 0.450
Размер потока : 164 Мбайт (82%)
Аудио
Идентификатор : 192 (0xC0)
Формат : MPEG Audio
Версия формата : Version 1
Профиль формата : Layer 2
Продолжительность : 20 м.
Вид битрейта : Постоянный
Битрейт : 224 Кбит/сек
Каналы : 2 канала
Частота : 44,1 КГц
Метод сжатия : С потерями
Размер потока : 32,2 Мбайт (16%)
Общее
Полное имя : \\NauchFilm_mechanics\04_Work_and_energy.mpg
Формат : MPEG-PS
Размер файла : 97,6 Мбайт
Продолжительность : 9 м. 48 с.
Общий поток : 1392 Кбит/сек
Видео
Идентификатор : 224 (0xE0)
Формат : MPEG Video
Версия формата : Version 1
Параметр BVOP формата : Да
Параметр матрицы формата : Выборочная
Продолжительность : 9 м. 48 с.
Битрейт : 1140 Кбит/сек
Максимальный битрейт : 1150 Кбит/сек
Ширина : 352 пикселя
Высота : 288 пикселей
Соотношение сторон : 4:3
Частота кадров : 25,000 кадров/сек
Стандарт вещания : PAL
Цветовое пространство : YUV
Битовая глубина : 8 бит
Тип развёртки : Прогрессивная
Метод сжатия : С потерями
Бит/(Пиксели*Кадры) : 0.450
Размер потока : 79,9 Мбайт (82%)
Аудио
Идентификатор : 192 (0xC0)
Формат : MPEG Audio
Версия формата : Version 1
Профиль формата : Layer 2
Продолжительность : 9 м. 48 с.
Вид битрейта : Постоянный
Битрейт : 224 Кбит/сек
Каналы : 2 канала
Частота : 44,1 КГц
Метод сжатия : С потерями
Размер потока : 15,7 Мбайт (16%)
Общее
Полное имя : \\NauchFilm_mechanics\05_Inertial_force.mpg
Формат : MPEG-PS
Размер файла : 102 Мбайт
Продолжительность : 10 м.
Общий поток : 1392 Кбит/сек
Видео
Идентификатор : 224 (0xE0)
Формат : MPEG Video
Версия формата : Version 1
Параметр BVOP формата : Да
Параметр матрицы формата : Выборочная
Продолжительность : 10 м.
Битрейт : 1140 Кбит/сек
Максимальный битрейт : 1150 Кбит/сек
Ширина : 352 пикселя
Высота : 288 пикселей
Соотношение сторон : 4:3
Частота кадров : 25,000 кадров/сек
Стандарт вещания : PAL
Цветовое пространство : YUV
Битовая глубина : 8 бит
Тип развёртки : Прогрессивная
Метод сжатия : С потерями
Бит/(Пиксели*Кадры) : 0.450
Размер потока : 83,5 Мбайт (82%)
Аудио
Идентификатор : 192 (0xC0)
Формат : MPEG Audio
Версия формата : Version 1
Профиль формата : Layer 2
Продолжительность : 10 м.
Вид битрейта : Постоянный
Битрейт : 224 Кбит/сек
Каналы : 2 канала
Частота : 44,1 КГц
Метод сжатия : С потерями
Размер потока : 16,4 Мбайт (16%)
Общее
Полное имя : \\NauchFilm_mechanics\06_Disturbed_oscillation.mpg
Формат : MPEG-PS
Размер файла : 52,3 Мбайт
Продолжительность : 5 м. 15 с.
Общий поток : 1392 Кбит/сек
Видео
Идентификатор : 224 (0xE0)
Формат : MPEG Video
Версия формата : Version 1
Параметр BVOP формата : Да
Параметр матрицы формата : Выборочная
Продолжительность : 5 м. 15 с.
Битрейт : 1140 Кбит/сек
Максимальный битрейт : 1150 Кбит/сек
Ширина : 352 пикселя
Высота : 288 пикселей
Соотношение сторон : 4:3
Частота кадров : 25,000 кадров/сек
Стандарт вещания : PAL
Цветовое пространство : YUV
Битовая глубина : 8 бит
Тип развёртки : Прогрессивная
Метод сжатия : С потерями
Бит/(Пиксели*Кадры) : 0.450
Размер потока : 42,9 Мбайт (82%)
Аудио
Идентификатор : 192 (0xC0)
Формат : MPEG Audio
Версия формата : Version 1
Профиль формата : Layer 2
Продолжительность : 5 м. 15 с.
Вид битрейта : Постоянный
Битрейт : 224 Кбит/сек
Каналы : 2 канала
Частота : 44,1 КГц
Метод сжатия : С потерями
Размер потока : 8,42 Мбайт (16%)
Общее
Полное имя : \\NauchFilm_mechanics\07_Movement_of_solid_and_gyroscope.mpg
Формат : MPEG-PS
Размер файла : 272 Мбайт
Продолжительность : 27 м.
Общий поток : 1392 Кбит/сек
Видео
Идентификатор : 224 (0xE0)
Формат : MPEG Video
Версия формата : Version 1
Параметр BVOP формата : Да
Параметр матрицы формата : Выборочная
Продолжительность : 27 м.
Битрейт : 1140 Кбит/сек
Максимальный битрейт : 1150 Кбит/сек
Ширина : 352 пикселя
Высота : 288 пикселей
Соотношение сторон : 4:3
Частота кадров : 25,000 кадров/сек
Стандарт вещания : PAL
Цветовое пространство : YUV
Битовая глубина : 8 бит
Тип развёртки : Прогрессивная
Метод сжатия : С потерями
Бит/(Пиксели*Кадры) : 0.450
Размер потока : 223 Мбайт (82%)
Аудио
Идентификатор : 192 (0xC0)
Формат : MPEG Audio
Версия формата : Version 1
Профиль формата : Layer 2
Продолжительность : 27 м.
Вид битрейта : Постоянный
Битрейт : 224 Кбит/сек
Каналы : 2 канала
Частота : 44,1 КГц
Метод сжатия : С потерями
Размер потока : 43,7 Мбайт (16%)
Общее
Полное имя : \\NauchFilm_mechanics\08_Relaxation_oscillations.mpg
Формат : MPEG-PS
Размер файла : 61,9 Мбайт
Продолжительность : 6 м. 13 с.
Общий поток : 1392 Кбит/сек
Видео
Идентификатор : 224 (0xE0)
Формат : MPEG Video
Версия формата : Version 1
Параметр BVOP формата : Да
Параметр матрицы формата : Выборочная
Продолжительность : 6 м. 13 с.
Битрейт : 1140 Кбит/сек
Максимальный битрейт : 1150 Кбит/сек
Ширина : 352 пикселя
Высота : 288 пикселей
Соотношение сторон : 4:3
Частота кадров : 25,000 кадров/сек
Стандарт вещания : PAL
Цветовое пространство : YUV
Битовая глубина : 8 бит
Тип развёртки : Прогрессивная
Метод сжатия : С потерями
Бит/(Пиксели*Кадры) : 0.450
Размер потока : 50,7 Мбайт (82%)
Аудио
Идентификатор : 192 (0xC0)
Формат : MPEG Audio
Версия формата : Version 1
Профиль формата : Layer 2
Продолжительность : 6 м. 13 с.
Вид битрейта : Постоянный
Битрейт : 224 Кбит/сек
Каналы : 2 канала
Частота : 44,1 КГц
Метод сжатия : С потерями
Размер потока : 9,97 Мбайт (16%)
Общее
Полное имя : \\NauchFilm_mechanics\09_Gyroscope.mpg
Формат : MPEG-PS
Размер файла : 207 Мбайт
Продолжительность : 20 м.
Общий поток : 1392 Кбит/сек
Видео
Идентификатор : 224 (0xE0)
Формат : MPEG Video
Версия формата : Version 1
Параметр BVOP формата : Да
Параметр матрицы формата : Выборочная
Продолжительность : 20 м.
Битрейт : 1140 Кбит/сек
Максимальный битрейт : 1150 Кбит/сек
Ширина : 352 пикселя
Высота : 288 пикселей
Соотношение сторон : 4:3
Частота кадров : 25,000 кадров/сек
Стандарт вещания : PAL
Цветовое пространство : YUV
Битовая глубина : 8 бит
Тип развёртки : Прогрессивная
Метод сжатия : С потерями
Бит/(Пиксели*Кадры) : 0.450
Размер потока : 170 Мбайт (82%)
Аудио
Идентификатор : 192 (0xC0)
Формат : MPEG Audio
Версия формата : Version 1
Профиль формата : Layer 2
Продолжительность : 20 м.
Вид битрейта : Постоянный
Битрейт : 224 Кбит/сек
Каналы : 2 канала
Частота : 44,1 КГц
Метод сжатия : С потерями
Размер потока : 33,3 Мбайт (16%)
Общее
Полное имя : \\NauchFilm_mechanics\10_Free_oscillation.mpg
Формат : MPEG-PS
Размер файла : 183 Мбайт
Продолжительность : 18 м.
Общий поток : 1392 Кбит/сек
Видео
Идентификатор : 224 (0xE0)
Формат : MPEG Video
Версия формата : Version 1
Параметр BVOP формата : Да
Параметр матрицы формата : Выборочная
Продолжительность : 18 м.
Битрейт : 1140 Кбит/сек
Максимальный битрейт : 1150 Кбит/сек
Ширина : 352 пикселя
Высота : 288 пикселей
Соотношение сторон : 4:3
Частота кадров : 25,000 кадров/сек
Стандарт вещания : PAL
Цветовое пространство : YUV
Битовая глубина : 8 бит
Тип развёртки : Прогрессивная
Метод сжатия : С потерями
Бит/(Пиксели*Кадры) : 0.450
Размер потока : 150 Мбайт (82%)
Аудио
Идентификатор : 192 (0xC0)
Формат : MPEG Audio
Версия формата : Version 1
Профиль формата : Layer 2
Продолжительность : 18 м.
Вид битрейта : Постоянный
Битрейт : 224 Кбит/сек
Каналы : 2 канала
Частота : 44,1 КГц
Метод сжатия : С потерями
Размер потока : 29,4 Мбайт (16%)
Общее
Полное имя : \\NauchFilm_mechanics\11_Statics.mpg
Формат : MPEG-PS
Размер файла : 78,7 Мбайт
Продолжительность : 7 м. 54 с.
Общий поток : 1392 Кбит/сек
Видео
Идентификатор : 224 (0xE0)
Формат : MPEG Video
Версия формата : Version 1
Параметр BVOP формата : Да
Параметр матрицы формата : Выборочная
Продолжительность : 7 м. 54 с.
Битрейт : 1140 Кбит/сек
Максимальный битрейт : 1150 Кбит/сек
Ширина : 352 пикселя
Высота : 288 пикселей
Соотношение сторон : 4:3
Частота кадров : 25,000 кадров/сек
Стандарт вещания : PAL
Цветовое пространство : YUV
Битовая глубина : 8 бит
Тип развёртки : Прогрессивная
Метод сжатия : С потерями
Бит/(Пиксели*Кадры) : 0.450
Размер потока : 64,5 Мбайт (82%)
Аудио
Идентификатор : 192 (0xC0)
Формат : MPEG Audio
Версия формата : Version 1
Профиль формата : Layer 2
Продолжительность : 7 м. 54 с.
Вид битрейта : Постоянный
Битрейт : 224 Кбит/сек
Каналы : 2 канала
Частота : 44,1 КГц
Метод сжатия : С потерями
Размер потока : 12,7 Мбайт (16%)
Согласовано с kuk@
24.05.17 Торрент файл заменен с на публичный. -

Постеры

Соцсети

 

Статистика

Автор: Stepan
Добавлен: 08 апр 2018, 00:21
Размер: 1.42 ГБ
Размер: 1 524 029 000 байт
Сидеров: 0
Личеров: 0
Скачали: 0
Здоровье: 0%
Статус:
Скорость скачивания: 0 байт/сек
Скорость раздачи: 0 байт/сек
Последний сидер: Нет
Последний личер: Нет
Приватный: Нет (DHT включён)
Школьникам, студентам и педагогам Скачать торрент
Скачать торрент
[ Размер 15.22 КБ / Просмотров 1 ]

Поделиться



  • Похожие торренты
    Ответы
    Просмотры
    Последнее сообщение

Вернуться в Школьникам, студентам и педагогам