Сообщение

[udemy.com / Brandon Hakim] Скорочтение: Учимся читать в 2 раза быстрее за 30 дней / Speed Reading Mastery: Double Your Reading Speed In 30 Days [2015, скорочтение, HDRip, RUS] (Видеоурок)

Сообщение Stepan » 08 апр 2018, 00:26

Скорочтение: Учимся читать в 2 раза быстрее за 30 дней

Страна: США
Тематика: скорочтение
Тип раздаваемого материала: Видеоурок
Год выпуска: 2015
Язык: Английский
Перевод: Любительский (одноголосый)
Переводчик: Samigg
Требования:Готовность читать каждый день
[*]Жажда к чтениюЧто я получу в этом курсе?Увеличите скорость вашего чтения в два или три раза в течении 30 дней
Узнаете, почему мы медленно читаем и что с этим делать
Сможете понимать все, что вы прочли
[*]Будете запоминать то, что вы прочлиЦелевая аудитория:Все те, кто хочет читать быстрее
[*]Каждый, кто готов тратить 15 минут в день в течение 30 днейПродолжительность: 01:04:10
Качество: HDRip
Формат: MP4
Видео кодек: H.264
Аудио кодек: AAC
Видео: MPEG4 Video (H264) 1280x720 30fps 299kbps
Аудио: AAC 44100Hz stereo 112kbps
General
Complete name : D:\rd\Скорочтение. Учимся читать в 2 раза быстрее за 30 дней\01. Структура\01. Вам необходимо это знать.mp4
Format : MPEG-4
Format profile : Base Media
Codec ID : isom
File size : 14.6 MiB
Duration : 4mn 56s
Overall bit rate mode : Variable
Overall bit rate : 414 Kbps
Encoded date : UTC 2016-02-14 07:55:44
Tagged date : UTC 2016-02-14 07:55:44
Writing application : My MP4Box GUI 0.6.0.6 <http://my-mp4box-gui.zymichost.com>;
Video
ID : 1
Format : AVC
Format/Info : Advanced Video Codec
Format profile : Baseline@L3.1
Format settings, CABAC : No
Format settings, ReFrames : 3 frames
Codec ID : avc1
Codec ID/Info : Advanced Video Coding
Duration : 4mn 56s
Bit rate : 299 Kbps
Maximum bit rate : 1 673 Kbps
Width : 1 280 pixels
Height : 720 pixels
Display aspect ratio : 16:9
Frame rate mode : Constant
Frame rate : 30.000 fps
Color space : YUV
Chroma subsampling : 4:2:0
Bit depth : 8 bits
Scan type : Progressive
Bits/(Pixel*Frame) : 0.011
Stream size : 10.6 MiB (72%)
Title : Become A Speed Reader Double Your Reading Speed In 30 Days Udemy (0)_track1.h264
Writing library : Zencoder Video Encoding System
Encoded date : UTC 2016-02-14 07:55:44
Tagged date : UTC 2016-02-14 07:55:45
Color primaries : BT.709
Transfer characteristics : BT.709
Matrix coefficients : BT.709
Audio
ID : 2
Format : AAC
Format/Info : Advanced Audio Codec
Format profile : LC
Codec ID : 40
Duration : 4mn 56s
Bit rate mode : Variable
Bit rate : 112 Kbps
Maximum bit rate : 143 Kbps
Channel(s) : 2 channels
Channel positions : Front: L R
Sampling rate : 44.1 KHz
Compression mode : Lossy
Stream size : 3.97 MiB (27%)
Title : speedreading_MP3 Audio_192 Kbps, CD Transparent Audio[0].aac
Encoded date : UTC 2016-02-14 07:55:45
Tagged date : UTC 2016-02-14 07:55:45

Постеры

Соцсети

 

Статистика

Автор: Stepan
Добавлен: 08 апр 2018, 00:26
Размер: 211.91 МБ
Размер: 222 201 083 байт
Сидеров: 0
Личеров: 0
Скачали: 0
Здоровье: 0%
Статус:
Скорость скачивания: 0 байт/сек
Скорость раздачи: 0 байт/сек
Последний сидер: Нет
Последний личер: Нет
Приватный: Нет (DHT включён)
Школьникам, студентам и педагогам Скачать торрент
Скачать торрент
[ Размер 21.17 КБ / Просмотров 5 ]

Поделиться



  • Похожие торренты
    Ответы
    Просмотры
    Последнее сообщение

Вернуться в Школьникам, студентам и педагогам