Сообщение

Универсариум. Введение в практическую электронику [2014, Электроника, WEBRip, RUS] (видеокурс)

Сообщение Stepan » 08 апр 2018, 00:26

Универсариум. Введение в практическую электронику [2014, Электроника, Webrip, RUS] (видеокурс)
Страна: Россия
Издатель: http://universarium.org/
Тематика: Электроника
Продолжительность: 05:07:20 (28 отдельных лекций)
Год выпуска: 2014
Язык: Русский
Описание: Видеокурс по основам электроники
Модули и структура курса
1. Основы электроники. Базовые компоненты электроники и принципы их функционирования - 6 лекций
2. Проектирование электронных устройств - 7 лекций
3. Создание beam-робота - 5 лекций
4. Практическая разработка печатной платы - 4 лекции
5. Сборка и включение рабочего прототипа beam-робота - 6 лекций
Цель изучения курса
Изучить основополагающие принципы электроники и научиться их применять на практике. Обучение будет строиться на основе выполнения проекта - самого простого "робота", который любит темноту, объезжает препятствия и не падает со стола.
Необходимый уровень подготовки
Курс школьной физики, химии и математики. Если вы боитесь, что знаний может не хватить - по каждому модулю у нас будут обширные руководства, большое количество ссылок и наглядных инструкций.
Результаты изучения курса
За время курса каждый слушатель получит необходимые знания, а также, если будет иметь достаточно упорства, сделает свое первое электронное устройство.
Качество: webrip
Формат: .webm
Видео: V_VP8, 1280x720, 565 Кбит/сек, 23,976 кадра/сек
Аудио: A_VORBIS, 48,0 КГц, 80,0 Кбит/сек, 2 канала
General
Format : WebM
Format version : Version 4 / Version 2
Overall bit rate mode : Variable
Overall bit rate : 689 Kbps
Writing application : Lavf55.33.100
Writing library : Lavf55.33.100
Video
ID : 2
Format : VP8
Codec ID : V_VP8
Duration : 6mn 54s
Bit rate : 573 Kbps
Width : 1 280 pixels
Height : 720 pixels
Display aspect ratio : 16:9
Frame rate mode : Constant
Frame rate : 23.976 fps
Compression mode : Lossy
Bits/(Pixel*Frame) : 0.026
Stream size : 28.3 MiB (83%)
Default : Yes
Forced : No
Audio
ID : 1
Format : Vorbis
Format settings, Floor : 1
Codec ID : A_VORBIS
Duration : 6mn 54s
Bit rate mode : Variable
Bit rate : 80.0 Kbps
Maximum bit rate : 1 000 Kbps
Channel(s) : 2 channels
Sampling rate : 48.0 KHz
Compression mode : Lossy
Delay relative to video : -3ms
Stream size : 3.95 MiB (12%)
Writing library : libVorbis (Turpakäräjiin) (20140122 (Turpakäräjiin))
Language : English
Default : Yes
Forced : No
Writing application : Lavc55.52.102
Сайт universarium.org не позволяет (стандартными средствами) скачивать лекции. А после завершения курсов - даже просматривать их. Знания должны быть свободными!

Постеры

Соцсети

 

Статистика

Автор: Stepan
Добавлен: 08 апр 2018, 00:26
Размер: 1.44 ГБ
Размер: 1 543 254 556 байт
Сидеров: 0
Личеров: 0
Скачали: 0
Здоровье: 0%
Статус:
Скорость скачивания: 0 байт/сек
Скорость раздачи: 0 байт/сек
Последний сидер: Нет
Последний личер: Нет
Приватный: Нет (DHT включён)
Школьникам, студентам и педагогам Скачать торрент
Скачать торрент
[ Размер 30.95 КБ / Просмотров 4 ]

Поделиться



  • Похожие торренты
    Ответы
    Просмотры
    Последнее сообщение

Вернуться в Школьникам, студентам и педагогам