Сообщение

Универсариум. Химия - полезная и бесполезная [2014, Химия, Webrip, RUS] (видеокурс) [2014, Химия, WEBRip, RUS]

Сообщение Stepan » 08 апр 2018, 00:27

Универсариум. Химия - полезная и бесполезная [2014, Химия, Webrip, RUS] (видеокурс)
Страна: Россия
Издатель: http://universarium.org/
Тематика: Химия
Продолжительность: 08:09:14 (36 отдельных лекций)
Год выпуска: 2014
Язык: Русский
Описание: Видеокурс по химии
О курсе и авторах
«Вокруг слишком много людей, которые зарабатывают деньги на невежестве тех, кто не потрудился узнать химию», - так один профессор ответил на вопрос своего студента: «Зачем мне химия в реальной жизни, если я не хочу быть химиком?»
Химия – одна из базовых наук, которая отвечает на вопрос «Как все устроено?»
Химия - это пища, которую вы едите, жидкости, которые вы пьете, воздух, которым вы дышите. Это ваши лекарства, зубная паста и средство для мытья посуды.
Химия в нас и вокруг нас.
Так что если вы потеряли интерес к этой науке сразу после того, как не нашли в таблице Менделеева элемент неожиданности, – этот курс для вас.
Профессора Химического факультета МГУ Вадим Еремин и Юрий Словохотов, а также доктор химических наук МГУ Екатерина Локтева расскажут, чем занимается химия и как она улучшает условия нашей жизни. Вы узнаете, как устроена вода и что такое «тепловая смерть» Вселенной. Вам объяснят, что общего между алмазом, аспирином и шоколадом и как делаются лекарственные препараты. И наконец – вы знали, что жизнь на земле существует благодаря водородным связям?
Непременно узнаете!
Модули и структура курса
1. Из чего и как все устроено - 8 лекций
2. Почему и как идут химические реакции - 8 лекций
3. Химическая энергия - 5 лекций
4. Кристаллы - 5 лекций
5. Катализ в химии и в жизни - 4 лекции
6. Великие химические открытия - 7 лекций
Цель изучения курса
Познакомиться с химией и понять, на что она способна
Необходимый уровень подготовки
Если вы вообще ничего не помните по химии - не страшно. Но вот наличие высшего образования - гуманитарного или технического - желательно. Потому что пассивно слушать лекции у вас не получится, преподаватели собираются вовлечь вас в процесс обучения. А для этого пригодятся умения работать с источниками, анализировать полученные знания и делать выводы.
Результаты изучения курса
Фактически вы узнаете новый язык. Знание "азбуки" химии позволит вам "прочесть" много нового в окружающем мире и, возможно, даже что-то изменить в своей жизни к лучшему. Жидкости, продукты, лекарства - на все это вы сможете взглянуть новым, критическим взглядом. Наконец, этот курс даст вам возможность перейти к более сложным и интересным разделам этой науки.
Качество: webrip
Формат: .webm, .mp4 (одни лекции в .webm, другие - в .mp4)
.webm:
Видео: V_VP8, 1280x720, 689 Кбит/сек, 23.976215 кадра/сек
Аудио: A_VORBIS, 48,0 КГц, 80,0 Кбит/сек, 2 канала
.mp4:
Видео: avc1, 1280x720, 600 Кбит/сек, 23,976 кадра/сек
Аудио: 40, 48,0 КГц, 80,0 Кбит/сек, 2 канала
Общее
Формат : WebM
Версия формата : Version 2
Размер файла : 94,0 Мбайт
Продолжительность : 19 м.
Режим общего битрейта : Переменный
Общий поток : 689 Кбит/сек
Программа кодирования : Lavf55.12.100
Библиотека кодирования : Lavf55.12.100
Видео
Идентификатор : 2
Формат : VP8
Идентификатор кодека : V_VP8
Продолжительность : 19 м.
Битрейт : 573 Кбит/сек
Ширина : 1280 пикселей
Высота : 720 пикселей
Соотношение сторон : 16:9
Режим частоты кадров : Постоянный
Частота кадров : 23,976 кадра/сек
Метод сжатия : С потерями
Бит/(Пиксели*Кадры) : 0.026
Размер потока : 78,2 Мбайт (83%)
Default : Да
Forced : Нет
Аудио
Идентификатор : 1
Формат : Vorbis
Параметр Floor формата : 1
Идентификатор кодека : A_VORBIS
Продолжительность : 19 м.
Вид битрейта : Переменный
Битрейт : 80,0 Кбит/сек
Максимальный битрейт : 1000 Кбит/сек
Каналы : 2 канала
Частота : 48,0 КГц
Метод сжатия : С потерями
Задержка видео : -3 мс.
Размер потока : 10,9 Мбайт (12%)
Библиотека кодирования : libVorbis (Omnipresent) (20120203 (Omnipresent))
Язык : English
Default : Да
Forced : Нет
Программа кодирования : Lavc55.18.102
Общее
Формат : MPEG-4
Профиль формата : Base Media
Идентификатор кодека : isom
Размер файла : 28,2 Мбайт
Продолжительность : 5 м. 33 с.
Режим общего битрейта : Переменный
Общий поток : 709 Кбит/сек
Программа кодирования : Lavf55.12.100
Видео
Идентификатор : 2
Формат : AVC
Формат/Информация : Advanced Video Codec
Профиль формата : Baseline@L3.1
Параметр CABAC формата : Нет
Параметр ReFrames формата : 1 кадр
Идентификатор кодека : avc1
Идентификатор кодека/Информация : Advanced Video Coding
Продолжительность : 5 м. 33 с.
Битрейт : 600 Кбит/сек
Ширина : 1280 пикселей
Высота : 720 пикселей
Соотношение сторон : 16:9
Режим частоты кадров : Постоянный
Частота кадров : 23,976 кадра/сек
Цветовое пространство : YUV
Субдискретизация насыщенности : 4:2:0
Битовая глубина : 8 бит
Тип развёртки : Прогрессивная
Бит/(Пиксели*Кадры) : 0.027
Размер потока : 24,9 Мбайт (88%)
Библиотека кодирования : x264 core 130
Настройки программы : cabac=0 / ref=1 / deblock=1:0:0 / analyse=0x1:0x111 / me=hex / subme=10 / psy=1 / psy_rd=1.00:0.00 / mixed_ref=0 / me_range=16 / chroma_me=1 / trellis=2 / 8x8dct=0 / cqm=0 / deadzone=21,11 / fast_pskip=1 / chroma_qp_offset=-2 / threads=48 / lookahead_threads=4 / sliced_threads=0 / nr=0 / decimate=1 / interlaced=0 / bluray_compat=0 / constrained_intra=0 / bframes=0 / weightp=0 / keyint=90 / keyint_min=9 / scenecut=40 / intra_refresh=0 / rc_lookahead=40 / rc=abr / mbtree=1 / bitrate=600 / ratetol=1.0 / qcomp=0.60 / qpmin=0 / qpmax=69 / qpstep=4 / vbv_maxrate=1000 / vbv_bufsize=10000 / nal_hrd=none / ip_ratio=1.40 / aq=1:1.00
Аудио
Идентификатор : 1
Формат : AAC
Формат/Информация : Advanced Audio Codec
Профиль формата : LC
Идентификатор кодека : 40
Продолжительность : 5 м. 33 с.
Вид битрейта : Переменный
Битрейт : 80,0 Кбит/сек
Максимальный битрейт : 1000 Кбит/сек
Каналы : 2 канала
Расположение каналов : Front: L R
Частота : 48,0 КГц
Метод сжатия : С потерями
Размер потока : 3,19 Мбайт (11%)
Язык : English
Сайт universarium.org не позволяет (стандартными средствами) скачивать лекции. А после завершения курсов - даже просматривать их. Знания должны быть свободными!

Постеры

Соцсети

 

Статистика

Автор: Stepan
Добавлен: 08 апр 2018, 00:27
Размер: 2.38 ГБ
Размер: 2 557 583 240 байт
Сидеров: 0
Личеров: 0
Скачали: 0
Здоровье: 0%
Статус:
Скорость скачивания: 0 байт/сек
Скорость раздачи: 0 байт/сек
Последний сидер: 30 дней 8 часов 18 минут 34 секунды назад
Последний личер: 30 дней 9 часов 46 минут 17 секунд назад
Приватный: Нет (DHT включён)
Школьникам, студентам и педагогам Скачать торрент
Скачать торрент
[ Размер 26.83 КБ / Просмотров 4 ]

Поделиться



  • Похожие торренты
    Ответы
    Просмотры
    Последнее сообщение

Вернуться в Школьникам, студентам и педагогам