Сообщение

[JUG.RU Group] Карго Культ 2018 Питер [2018, HR, PR, Маркетинг, WEBRip, RUS] (Лекция)

Сообщение Stepan » 08 апр 2018, 14:38

Карго Культ 2018 Питер
Автор: JUG.RU Group
Страна: Россия
Тематика: HR, PR, Маркетинг
Тип раздаваемого материала: Лекция
Продолжительность: 04:30:00
Год выпуска: 2018
Язык: Русский
Ссылка на видеокурс на сайте производителя: http://cargo-cult.club/
Описание: Нафиг фишки! Нафиг кейсы! Нафиг истории успеха! Семинар о подходах к пиару и маркетингу без фишкинга, кейсов и success stories.
Карго Культ — это мероприятие о том, как инженерный подход и критическое мышление делают работу не просто осознанной, а результативной.
Доп. информация: Общее
Формат : MPEG-4
Профиль формата : Base Media / Version 2
Идентификатор кодека : mp42 (isom/mp42)
Размер файла : 273 Мбайт
Продолжительность : 36 м. 56 с.
Режим общего битрейта : Переменный
Общий поток : 1035 Кбит/сек
gsst : 0
gstd : 2216436
Видео
Идентификатор : 1
Формат : AVC
Формат/Информация : Advanced Video Codec
Профиль формата : High@L3.1
Настройки формата : CABAC / 1 Ref Frames
Параметр CABAC формата : Да
Параметр RefFrames формата : 1 кадр
Идентификатор кодека : avc1
Идентификатор кодека/Информация : Advanced Video Coding
Продолжительность : 36 м. 56 с.
Битрейт : 840 Кбит/сек
Максимальный битрейт : 3267 Кбит/сек
Ширина : 1280 пикселей
Высота : 720 пикселей
Соотношение сторон : 16:9
Режим частоты кадров : Постоянный
Частота кадров : 30,000 кадров/сек
Цветовое пространство : YUV
Субдискретизация насыщенности : 4:2:0
Битовая глубина : 8 бит
Тип развёртки : Прогрессивная
Бит/(Пиксели*Кадры) : 0.030
Размер потока : 222 Мбайт (81%)
Цветовой диапазон : Limited
Основные цвета : BT.709
Характеристики трансфера : BT.709
Коэффициенты матрицы : BT.709
Аудио
Идентификатор : 2
Формат : AAC
Формат/Информация : Advanced Audio Codec
Профиль формата : LC
Идентификатор кодека : mp4a-40-2
Продолжительность : 36 м. 56 с.
Вид битрейта : Переменный
Битрейт : 192 Кбит/сек
Максимальный битрейт : 201 Кбит/сек
Каналы : 2 канала
Расположение каналов : Front: L R
Частота : 44,1 КГц
Частота кадров : 43,066 кадра/сек (1024 SPF)
Метод сжатия : С потерями
Размер потока : 50,7 Мбайт (19%)
Качество: WEBRip
Формат: MP4
Видео кодек: H.264
Аудио кодек: AAC
Видео: MPEG-4, 1280x720 (16:9) 840kbps 30fps
Аудио: AAC, 192kbps, 44.1kHz 2ch

Постеры

Соцсети

 

Статистика

Автор: Stepan
Добавлен: 08 апр 2018, 14:38
Размер: 1.88 ГБ
Размер: 2 018 516 682 байт
Сидеров: 0
Личеров: 0
Скачали: 0
Здоровье: 0%
Статус:
Скорость скачивания: 0 байт/сек
Скорость раздачи: 0 байт/сек
Последний сидер: Нет
Последний личер: Нет
Приватный: Нет (DHT включён)
Бизнес, Стратегия Скачать торрент
Скачать торрент
[ Размер 38.79 КБ / Просмотров 0 ]

Поделиться



  • Похожие торренты
    Ответы
    Просмотры
    Последнее сообщение

Вернуться в Бизнес, Стратегия