Сообщение

Приют комедиантов. Выпуск 37. Я попал на ТВ (Сергей Варновский) [2012, Капустник, SATRip]

Сообщение Солнышко » 08 апр 2018, 17:16

Приют комедиантов. Выпуск 37. Я попал на ТВ
Жанр: Капустник
Производство: ООО "Эксклюзив ТВ".
Год выпуска: 2012
Продолжительность: 01:29:53
Режиссёр: Сергей Варновский
Ведущие: Екатерина Уфимцева, Михаил Швыдкой
В ролях: Роксана Бабаян, Михаил Державин, Ольга Хохлова, Роман Виктюк, Владимир Долинский, Тамара Гвердцители, Ирина Лачина, Елена Валюшкина, Владимир Качан, Владислав Маленко, Марк Тишман, Вячеслав Манучаров, Александр Олешко, Яна Поплавская и другие.
Описание: В этом выпуске программы "Приют комедиантов" известные артисты и музыканты вспоминают о своём опыте работы на телевидении...
Очаровательная Роксана Бабаян впервые появилась на голубом экране в роскошном импортном трикотажном платье, купленном за бешеные деньги у спекулянта. И все бы ничего, да телевизионные чиновники, увидев у певицы слишком откровенный, по их мнению, вырез, забили тревогу. Пришлось Роксане заклеивать грудь пластырем. Её муж Михаил Державин начинал телекарьеру в качестве ведущего программы "Кабачок 13 стульев". И именно его присутствие при разговоре "нашего дорогого Леонида Ильича" с одним из руководителей Гостелерадио продлило жизнь передаче на целых 10 лет.
Почему дебют Тамары Гвердцители на "Голубом огоньке" в начале 1980-х не состоялся? Каким образом Татьяна Веденеева оказалась перед своим первым выходом в прямой эфир в домашнем халате и с мокрыми волосами? За что пытались прогнать с телевидения Романа Виктюка? Как Александр Олешко превратился во внука Юрия Олеши? Обо всём этом - в новом выпуске "Приюта комедиантов".
Доп. информация: Премьерный телеэфир 04.11.2012 г.
Семпл: http://multi-up.com/786360
Качество видео: SATRip
Формат видео: AVI
Аудио кодек: MP3
Видео кодек: XviD
Видео: 704x528 (1.33:1), 25 fps, XviD build 50 ~1559 kbps avg, 0.17 bit/pixel
Аудио: 48 kHz, MPEG Layer 3, 2 ch, ~192.00 kbps avg
Общее
Полное имя : 37.Prijut.komediantov.Debjut.Na.TV.Satrip.by.igor0mr.avi
Формат : AVI
Формат/Информация : Audio Video Interleave
Профиль формата : OpenDML
Размер файла : 1,10 Гбайт
Продолжительность : 1 ч. 29 м.
Общий поток : 1758 Кбит/сек
Программа кодирования : MEncoder SVN-r30881(20100311-gcc4.3.3)
Библиотека кодирования : MPlayer
Видео
Идентификатор : 0
Формат : MPEG-4 Visual
Профиль формата : Advanced Simple@L5
Параметр BVOP формата : 2
Параметр QPel формата : Нет
Параметр GMC формата : Без точки перехода
Параметр матрицы формата : Default (H.263)
Идентификатор кодека : XVID
Идентификатор кодека/Подсказка : XviD
Продолжительность : 1 ч. 29 м.
Битрейт : 1550 Кбит/сек
Ширина : 704 пикселя
Высота : 528 пикселей
Соотношение сторон : 4:3
Частота кадров : 25,000 кадров/сек
Цветовое пространство : YUV
Субдискретизация насыщенности : 4:2:0
Битовая глубина : 8 бит
Тип развёртки : Прогрессивная
Метод сжатия : С потерями
Бит/(Пиксели*Кадры) : 0.167
Размер потока : 996 Мбайт (88%)
Библиотека кодирования : XviD 1.2.1 (UTC 2008-12-04)
Аудио
Идентификатор : 1
Формат : MPEG Audio
Версия формата : Version 1
Профиль формата : Layer 3
Режим : Joint stereo
Расширение режима : MS Stereo
Идентификатор кодека : 55
Идентификатор кодека/Подсказка : MP3
Продолжительность : 1 ч. 29 м.
Вид битрейта : Постоянный
Битрейт : 192 Кбит/сек
Каналы : 2 канала
Частота : 48,0 КГц
Метод сжатия : С потерями
Задержка видео : 40 мс.
Размер потока : 123 Мбайт (11%)
Выравнивание : Соединение по промежуткам
Продолжительность промежутка : 24 мс. (0,60 видеокадр)
Время предзагрузки промежутка : 504 мс.



Постеры

Соцсети

 

Статистика

Автор: Солнышко
Добавлен: 08 апр 2018, 17:16
Размер: 1.1 ГБ
Размер: 1 185 318 656 байт
Сидеров: 0
Личеров: 0
Скачали: 0
Здоровье: 0%
Скорость скачивания: 0 байт/сек
Скорость раздачи: 0 байт/сек
Последний сидер: Нет
Последний личер: Нет
Приватный: Нет (DHT включён)
Скачать торрент
Скачать торрент
[ Размер 11.59 КБ / Просмотров 0 ]

Поделиться



  • Похожие торренты
    Ответы
    Просмотры
    Последнее сообщение

Вернуться в Мастера искусств Театра и Кино