Сообщение

Встречи с любимыми актерами. Георгий Тараторкин [1999, Приложение к телеигре, TVRip]

Сообщение Солнышко » 08 апр 2018, 17:20

Встречи с любимыми актерами. Георгий Тараторкин
Жанр: Приложение к телеигре.
Год выпуска: 1999.
Продолжительность: 01:58:20.
Автор и ведущий: Александр Динес.
Гость этой программы: Георгий Тараторкин.
Описание:
"Маркиза" - это разлекательно-познавательная телеигра, выходящая на Саратовском телевидении с 1993 года. Она состоит из двух частей. В первой части зрители в студии угадывают авторов литературных произведений, сами произведения или их персонажей. Во второй части аудитории требуется определить личность гостя, приглашенного в студию. Как правило, в роли гостя выступает кто-либо из известных актеров, который специально приезжает в Саратов.
В данной раздаче представлено приложение к телеигре - встреча с любимыми актерами. Гость программы - Александр Адабашьян.
Гость этой программы - актер Георгий Тараторкин отвечает на вопросы зрителей и ведущего, рассказывает о своей жизни, о работе в театре и кино, а также читает произведения А. Блока.
Георгий Тараторкин сыграл Родиона Раскольникова в 23 года. А в 25 стал лауреатом Государственной премии. После такого ошеломляющего успеха молодого актера, по его собственному признанию, самым сильным соперником в работе стало "рано достигнутое". Долгие годы его воспринимали только как актера одного автора - Достоевского. Иван в "Братьях Карамазовых", Ставрогин в "Бесах". Молодому актеру долго пришлось доказывать, что блестяще сыгранная роль Раскольникова – лишь одна из вершин его многогранного таланта.
Дополнительная информация:
Страна: Россия .
Выпущено: Саратовское телевидение, © СМИ «Телеигра «Маркиза».
Съемка 1999 года.
Релиз

Качество видео:...TVRip
Формат:.................AVI
Видео:..688x512 (1.34:1), 25 fps, XviD MPEG-4 ~1476 kbps avg, 0.17 bit/pixel
Аудио:..48 kHz, MPEG Layer 3, 2 ch, ~128.00 kbps avg
Общее
Полное имя : Vstrechi.s.ljubimymi.aktjorami.Georgij.Taratorkin.1999.XviD.TVRip.fenixclub.avi
Format : AVI
Format/Info : Audio Video Interleave
File size : 1.39 GiB
Duration : 1h 58mn
Overall bit rate : 1 678 Kbps
Writing application : VirtualDubModRus 1.5.10.2 (build 2542/release)
Writing library : VirtualDub build 32842/release
Video
ID : 0
Format : MPEG-4 Visual
Format profile : Advanced Simple@L5
Format settings, BVOP : 2
Format settings, QPel : No
Format settings, GMC : No warppoints
Format settings, Matrix : Default (H.263)
Codec ID : XVID
Codec ID/Hint : XviD
Duration : 1h 58mn
Bit rate : 1 477 Kbps
Width : 688 pixels
Height : 512 pixels
Display aspect ratio : 4:3
Frame rate : 25.000 fps
Color space : YUV
Chroma subsampling : 4:2:0
Bit depth : 8 bits
Scan type : Progressive
Compression mode : Lossy
Bits/(Pixel*Frame) : 0.168
Stream size : 1.22 GiB (88%)
Writing library : XviD 73
Audio
ID : 1
Format : MPEG Audio
Format version : Version 1
Format profile : Layer 3
Mode : Joint stereo
Mode extension : MS Stereo
Codec ID : 55
Codec ID/Hint : MP3
Duration : 1h 58mn
Bit rate mode : Constant
Bit rate : 192 Kbps
Channel(s) : 2 channels
Sampling rate : 48.0 KHz
Compression mode : Lossy
Stream size : 163 MiB (11%)
Alignment : Split accross interleaves
Interleave, duration : 40 ms (1.00 video frame)
Interleave, preload duratio : 500 ms
Writing library : LAME3.98.2

Постеры

Соцсети

 

Статистика

Автор: Солнышко
Добавлен: 08 апр 2018, 17:20
Размер: 1.39 ГБ
Размер: 1 489 844 494 байт
Сидеров: 0
Личеров: 0
Скачали: 0
Здоровье: 0%
Скорость скачивания: 0 байт/сек
Скорость раздачи: 0 байт/сек
Последний сидер: Нет
Последний личер: Нет
Приватный: Нет (DHT включён)
Скачать торрент
Скачать торрент
[ Размер 14.49 КБ / Просмотров 0 ]

Поделиться



  • Похожие торренты
    Ответы
    Просмотры
    Последнее сообщение

Вернуться в Мастера искусств Театра и Кино