Сообщение

Юбилейный вечер Олега Табакова [2016, Россия, Бенефис, HDTV 1080i]

Сообщение Солнышко » 08 апр 2018, 17:21

Юбилейный вечер Олега Табакова
Страна: Россия
Жанр: Бенефис
Год выпуска: 2016
Продолжительность: 01:29:03
Перевод: Не требуется
Оригинальная аудиодорожка: русский
Описание: "Первый канал" представляет телеверсию юбилейного вечера Олега Табакова в МХТ имени Чехова. Гостями вечера были друзья юбиляра, звезды российской музыки и сцены, а также воспитанники Московской театральной школы Олега Табакова. Ведущие вечера - Иван Ургант и Игорь Золотовицкий. Сам герой торжества наблюдал праздничное действо из 8-го ряда партера, где занял место Станиславского. На сцене в этот вечер блистали знаменитые ученики Олега Павловича Сергей Безруков и Владимир Машков. Безруков исполнил арию из спектакля "Амадей" (шел на сцене МХТ 25 лет), где Моцарт-Безруков обвинил Учителя в отравлении - "Я отравлен навсегда - это счастье, господа", а дальше "Отрави же, отрави!" на мотив "Позвони мне, позвони". Машков вышел в облике Абрама Шварца с авоськой, в которой были "чеснок - от всего и чернослив - для всего". "Спасибо, что научил нас, с чем кушают счастье". Овации зала сорвали члены Клуба "80+" (старшие товарищи) Александр Ширвиндт, Станислав Любшин и Юрий Соломин. Но заводилой в этой компании, бесспорно, стал 100-летний Владимир Зельдин. Ширвиндт назвал ровесников "командой паралимпийцев" и уточнил - "Но мы без допинга!". На вечере выступили Михаил Жванецкий и Евгений Гришковец, пела Полина Гагарина, играл оркестр под управлением Владимира Спивакова, студенты колледжа Олега Табакова демонстрировали пластику и чувство ритма, были задействованы в сценарии и члены семьи Табакова, репризы, частушки и видеопоздравления. Все это - юбилейный вечер Олега Табакова.
Источник: рип olegka7373
Качество: HDTV 1080i
Контейнер: TS
Видео кодек: H.264
Аудио кодек: MP2
Видео: H264; 1920x1080 (16:9); 25.000 fps; ~8308 Kbps
Аудио: AC3, 6 channels, 48000Hz, 384 Кбит/сек
Аудио 2: MP2, 2 channels, 48000Hz, 192 Кбит/сек
General
ID : 1 (0x1)
Complete name : C:\Jubilejnyj vecher Olega Tabakova.HDTV(1080i).GeneralFilm.ts
Format : MPEG-TS
File size : 5.82 GiB
Duration : 1h 29mn
Overall bit rate mode : Variable
Overall bit rate : 9 352 Kbps
Video
ID : 604 (0x25C)
Menu ID : 80 (0x50)
Format : AVC
Format/Info : Advanced Video Codec
Format profile : High@L4.0
Format settings, CABAC : Yes
Format settings, ReFrames : 3 frames
Codec ID : 27
Duration : 1h 29mn
Bit rate : 8 308 Kbps
Width : 1 920 pixels
Height : 1 080 pixels
Display aspect ratio : 16:9
Frame rate : 25.000 fps
Standard : Component
Color space : YUV
Chroma subsampling : 4:2:0
Bit depth : 8 bits
Scan type : Interlaced
Bits/(Pixel*Frame) : 0.160
Stream size : 5.17 GiB (89%)
Color primaries : BT.709
Transfer characteristics : BT.709
Matrix coefficients : BT.709
Audio #1
ID : 607 (0x25F)
Menu ID : 80 (0x50)
Format : AC-3
Format/Info : Audio Coding 3
Mode extension : CM (complete main)
Format settings, Endianness : Big
Codec ID : 6
Duration : 1h 29mn
Bit rate mode : Constant
Bit rate : 384 Kbps
Channel(s) : 6 channels
Channel positions : Front: L C R, Side: L R, LFE
Sampling rate : 48.0 KHz
Bit depth : 16 bits
Compression mode : Lossy
Stream size : 245 MiB (4%)
Language : Russian
Audio #2
ID : 608 (0x260)
Menu ID : 80 (0x50)
Format : MPEG Audio
Format version : Version 1
Format profile : Layer 2
Codec ID : 3
Duration : 1h 29mn
Bit rate mode : Constant
Bit rate : 192 Kbps
Channel(s) : 2 channels
Sampling rate : 48.0 KHz
Compression mode : Lossy
Stream size : 122 MiB (2%)
Language : Russian

Постеры

Соцсети

 

Статистика

Автор: Солнышко
Добавлен: 08 апр 2018, 17:21
Размер: 5.82 ГБ
Размер: 6 246 627 120 байт
Сидеров: 0
Личеров: 0
Скачали: 0
Здоровье: 0%
Скорость скачивания: 0 байт/сек
Скорость раздачи: 0 байт/сек
Последний сидер: Нет
Последний личер: Нет
Приватный: Нет (DHT включён)
Скачать торрент
Скачать торрент
[ Размер 29.58 КБ / Просмотров 0 ]

Поделиться



  • Похожие торренты
    Ответы
    Просмотры
    Последнее сообщение

Вернуться в Мастера искусств Театра и Кино