Сообщение

Крафтверк / Kraftwerk (Ханнес Россахер, Саймон Виттер / Hannes Rossacher, Simon Witter) [2013, Документальный, музыка, история, DVB]

Сообщение Солнышко » 26 апр 2018, 19:14

Крафтверк / Kraftwerk
Дата/Год выпуска: 2013
Страна: Германия, Франция
Жанр: Документальный, музыка, история
Продолжительность: 00:59:55
Перевод: Профессиональный (двухголосый закадровый)
Русские субтитры: нет
Оригинальная аудиодорожка: нет
Режиссер: Ханнес Россахер, Саймон Виттер / Hannes Rossacher, Simon Witter
Телеканал: 24 DOC
Описание: Удивительная история о том, как музыканты-затворники покорили мир своей музыкой, и стали одной из самых влиятельных поп-групп, успешно совместив искусство и электронику. Фильм показывает группу Kraftwerk во всем многообразии её проявлений: на концертах в Тэйт Модерн в 2013 году, в студии, во время записи и во время отдыха. Архивные материалы перемежаются с интервью экспертов, оценивающих такое явление как умная поп-музыка группы Kraftwerk с разных сторон.
Сэмпл: http://multi-up.com/1098905
качество: DVB
формат: AVC(h.264), MKV
Видео: 720x576 (4:2:0), 25 fps, MPEG-4 ~2443 kbps avg, 0.236 bit/pixel
Аудио: 48 kHz, AC3 Dolby Digital, 2/0 (L,R) Surround Encoded ch, ~192 kbps
Код: Выделить всё
General
Unique ID                      : 233982171574168645266334018838241585159 (0xB00753BAC6F8708F801B447988B5A807)
Complete name                  : E:\Pshichko66\Na zapis'\Документальные фильмы\Kraftwerk.mkv
Format                         : Matroska
Format version                 : Version 2
File size                      : 1.13 GiB
Duration                       : 59mn 55s
Overall bit rate               : 2 689 Kbps
Encoded date                   : UTC 2016-04-21 03:04:34
Writing application            : mkvmerge v4.0.0 ('The Stars were mine') сборка от Jun  6 2010 16:18:42
Writing library                : libebml v1.0.0 + libmatroska v1.0.0
Video
ID                             : 1
Format                         : AVC
Format/Info                    : Advanced Video Codec
Format profile                 : Baseline@L4.1
Format settings, CABAC         : No
Format settings, ReFrames      : 3 frames
Codec ID                       : V_MPEG4/ISO/AVC
Duration                       : 59mn 55s
Bit rate                       : 2 443 Kbps
Width                          : 720 pixels
Height                         : 576 pixels
Display aspect ratio           : 5:4
Frame rate mode                : Constant
Frame rate                     : 25.000 fps
Standard                       : PAL
Color space                    : YUV
Chroma subsampling             : 4:2:0
Bit depth                      : 8 bits
Scan type                      : Progressive
Bits/(Pixel*Frame)             : 0.236
Stream size                    : 1.02 GiB (91%)
Default                        : Yes
Forced                         : No
Audio
ID                             : 2
Format                         : AC-3
Format/Info                    : Audio Coding 3
Format profile                 : Dolby Digital
Mode extension                 : CM (complete main)
Format settings, Endianness    : Big
Codec ID                       : A_AC3
Duration                       : 59mn 55s
Bit rate mode                  : Constant
Bit rate                       : 192 Kbps
Channel(s)                     : 2 channels
Channel positions              : Front: L R
Sampling rate                  : 48.0 KHz
Frame rate                     : 31.250 fps (1536 spf)
Compression mode               : Lossy
Stream size                    : 82.3 MiB (7%)
Default                        : Yes
Forced                         : No

Постеры

Соцсети

 

Статистика

Автор: Солнышко
Добавлен: 26 апр 2018, 19:14
Размер: 1.13 ГБ
Размер: 1 208 398 525 байт
Сидеров: 0
Личеров: 0
Скачали: 0
Здоровье: 0%
Скорость скачивания: 0 байт/сек
Скорость раздачи: 0 байт/сек
Последний сидер: Нет
Последний личер: Нет
Приватный: Нет (DHT включён)
Скачать торрент
Скачать торрент
[ Размер 45.45 КБ / Просмотров 0 ]

Поделиться



  • Похожие торренты
    Ответы
    Просмотры
    Последнее сообщение

Вернуться в Музыка