Сообщение

Революция в звукозаписи: Рассказы о новаторах звукозаписи / Soundbreaking: Stories from the Cutting Edge of Recorded Music Серии 1-8 из 8 (Джордж Генри Мартин /George Henry Martin;) [2016, Документальный ТВ-сериал, TVRip] RUS SUB

Сообщение Солнышко » 26 апр 2018, 20:20

Революция в звукозаписи: Рассказы о новаторах звукозаписи
/ Soundbreaking: Stories from the Cutting Edge of Recorded Music
Год выпуска: 2016
Страна: США
Жанр: Документальный ТВ-сериал
Продолжительность: ~00:50:00 (1 серия)
Перевод: Субтитры
Русские субтитры: есть
Формат субтитров: hardsub (неотключаемые)
Оригинальная аудиодорожка: английский
Продюсер: Джордж Генри Мартин /George Henry Martin
Телеканал: Аруц 8 (Израиль)
Описание: В сериале вы познакомитесь с историей звукозаписи, увидите более чем 150 оригинальных интервью, а также сериал отслеживает звуковую революцию и исследует взаимосвязь передовых технологий и человеческого мастерства, которые создают саундтрек нашей жизни.
Релиз группы:
Доп. информация: Запись с канала "Аруц 8" (Израиль). Фильмы на английском языке с двойными субтитрами на русском языке и иврите.
Сэмпл: https://yadi.sk/i/aLojW35H39nn8G
качество: TVRip
формат: AVI
Видео: 1758 Кbps, 704х400 (16:9), 25.000 fps, MPEG-4 Visual (XviD)(Advanced Simple@L5)(BVOP2)
Аудио: 128 Kbps,48.0 KHz, 2 сhannels, MPEG Audio (MP3) (Version 1)(Layer 3)(Joint stereo/MS Stereo)
1. Мастер звукозаписи (The Recording Artist)
2. Звуковая живопись (Painting with Sound)
3. Человеческий голос (The Human Instrument)
4. Электричество (Going Electric)
5. Танцплощадка (Four on the Floor)
6. Мир ваш (The World Is Yours)
7. Звук и картинка (Sound Vision)
8. Я - моя музыка (The Way We Listen)
Код: Выделить всё
General
Complete name                            : D:\Soundbreaking\S1E1-The Recording Artist.avi
Format                                   : AVI
Format/Info                              : Audio Video Interleave
File size                                : 673 MiB
Duration                                 : 49mn 36s
Overall bit rate                         : 1 896 Kbps
Writing library                          : VirtualDub-MPEG2 build 24600/release
Video
ID                                       : 0
Format                                   : MPEG-4 Visual
Format profile                           : Advanced Simple@L5
Format settings, BVOP                    : 2
Format settings, QPel                    : No
Format settings, GMC                     : No warppoints
Format settings, Matrix                  : Default (MPEG)
Codec ID                                 : XVID
Codec ID/Hint                            : XviD
Duration                                 : 49mn 36s
Bit rate                                 : 1 758 Kbps
Width                                    : 704 pixels
Height                                   : 400 pixels
Display aspect ratio                     : 16:9
Frame rate                               : 25.000 fps
Color space                              : YUV
Chroma subsampling                       : 4:2:0
Bit depth                                : 8 bits
Scan type                                : Progressive
Compression mode                         : Lossy
Bits/(Pixel*Frame)                       : 0.250
Stream size                              : 624 MiB (93%)
Writing library                          : XviD 58
Audio
ID                                       : 1
Format                                   : MPEG Audio
Format version                           : Version 1
Format profile                           : Layer 3
Mode                                     : Joint stereo
Mode extension                           : MS Stereo
Codec ID                                 : 55
Codec ID/Hint                            : MP3
Duration                                 : 49mn 36s
Bit rate mode                            : Constant
Bit rate                                 : 128 Kbps
Channel(s)                               : 2 channels
Sampling rate                            : 48.0 KHz
Compression mode                         : Lossy
Stream size                              : 45.4 MiB (7%)
Alignment                                : Split accross interleaves
Interleave, duration                     : 40 ms (1.00 video frame)
Interleave, preload duration             : 500 ms

Постеры

Соцсети

 

Статистика

Автор: Солнышко
Добавлен: 26 апр 2018, 20:20
Размер: 5.54 ГБ
Размер: 5 953 686 410 байт
Сидеров: 0
Личеров: 0
Скачали: 0
Здоровье: 0%
Скорость скачивания: 0 байт/сек
Скорость раздачи: 0 байт/сек
Последний сидер: Нет
Последний личер: Нет
Приватный: Нет (DHT включён)
Скачать торрент
Скачать торрент
[ Размер 8.13 КБ / Просмотров 0 ]

Поделиться



  • Похожие торренты
    Ответы
    Просмотры
    Последнее сообщение

Вернуться в Музыка