Сообщение

Поет Бибигуль (Эмир Файк) [1969, СССР, документальный, биография, DVB] Original (Rus)

Сообщение Солнышко » 26 апр 2018, 20:20

Поет Бибигуль
Страна: СССР
Студия: Казахфильм
Жанр: документальный, биография
Продолжительность: 00:17:48
Год выпуска: 1969
Перевод: не требуется
Субтитры: отсутствуют
Режиссер: Эмир Файк
Описание: Документальный фильм о певице Бибигуль Тулегеновой.
Семпл: http://sendfile.su/1401639
Качество: DVB [Ел Арна] (эфир 24.02.2018)
Формат: MKV
Видео: AVC, 720х576 (16:9) @ 1047х576, 25 fps, ~2006 kbps, 0.194 bit/pixel
Аудио: [RUS] 48 kHz, MP2, 2 ch, 192 kbps
Код: Выделить всё
Общее
Уникальный идентификатор                 : 149201166036653718090893519616964660733 (0x703F196E653135FDCB851F3E93ED8DFD)
Полное имя                               : F:\Поёт Бибигуль (1969) [DVB].mkv
Формат                                   : Matroska
Версия формата                           : Version 2
Размер файла                             : 300 Мбайт
Продолжительность                        : 18 м. 40 с.
Общий поток                              : 2243 Кбит/сек
Программа кодирования                    : Lavf54.63.104
Библиотека кодирования                   : Lavf54.63.104
Видео
Идентификатор                            : 1
Формат                                   : AVC
Формат/Информация                        : Advanced Video Codec
Профиль формата                          : High@L3
Параметр CABAC формата                   : Да
Параметр RefFrames формата               : 3 кадра
Идентификатор кодека                     : V_MPEG4/ISO/AVC
Продолжительность                        : 18 м. 40 с.
Битрейт                                  : 2006 Кбит/сек
Ширина                                   : 720 пикселей
Высота                                   : 576 пикселей
Соотношение сторон                       : 16:9
Соотношение сторон в оригинале           : 16:9
Режим частоты кадров                     : Постоянный
Частота кадров                           : 25,000 кадров/сек
Стандарт вещания                         : Component
Цветовое пространство                    : YUV
Субдискретизация насыщенности            : 4:2:0
Битовая глубина                          : 8 бит
Тип развёртки                            : Чересстрочная
Метод сохранения типа развёртки          : Раздельные поля
Порядок развёртки                        : Верхнее поле первое
Бит/(Пиксели*Кадры)                      : 0.194
Размер потока                            : 268 Мбайт (89%)
Default                                  : Нет
Forced                                   : Нет
Цветовой диапазон                        : Limited
Основные цвета                           : BT.601 PAL
Характеристики трансфера                 : BT.470 System B, BT.470 System G
Коэффициенты матрицы                     : BT.470 System B, BT.470 System G
Аудио
Идентификатор                            : 2
Формат                                   : MPEG Audio
Версия формата                           : Version 1
Профиль формата                          : Layer 2
Идентификатор кодека                     : A_MPEG/L2
Идентификатор кодека/Подсказка           : MP2
Продолжительность                        : 18 м. 40 с.
Вид битрейта                             : Постоянный
Битрейт                                  : 192 Кбит/сек
Каналы                                   : 2 канала
Частота                                  : 48,0 КГц
Метод сжатия                             : С потерями
Размер потока                            : 25,6 Мбайт (9%)
Язык                                     : English
Default                                  : Да
Forced                                   : Нет

Постеры

Соцсети

 

Статистика

Автор: Солнышко
Добавлен: 26 апр 2018, 20:20
Размер: 299.62 МБ
Размер: 314 172 201 байт
Сидеров: 0
Личеров: 0
Скачали: 0
Здоровье: 0%
Скорость скачивания: 0 байт/сек
Скорость раздачи: 0 байт/сек
Последний сидер: Нет
Последний личер: Нет
Приватный: Нет (DHT включён)
Скачать торрент
Скачать торрент
[ Размер 12.17 КБ / Просмотров 0 ]

Поделиться



  • Похожие торренты
    Ответы
    Просмотры
    Последнее сообщение

Вернуться в Музыка