Сообщение

Моцарт - суперзвезда / Mozart Superstar (Матиас Гудо / Mathias Goudeau) [2012, документальный, биографический, музыка, DVB] DVO (Видеопродакшн)

Сообщение Солнышко » 26 апр 2018, 21:03

Моцарт - суперзвезда
Mozart Superstar
#77Год выпуска: 2012
Страна: Франция
Жанр: документальный, биографический, музыка
Продолжительность: 00:51:47
Перевод: Профессиональный (двухголосый закадровый) (Компания "Видеопродакшн")
Русские субтитры: нет
Режиссер: Матиас Гудо / Mathias Goudeau
Описание: Моцарт принадлежит всему миру, мировая звезда, признан и любим, сочетание гения и простого человека. Трагедия его жизни, количество произведений, которые он оставил, счастье, которое он испытывал и его смерть в молодом возрасте - тут есть загадка. Он современен и актуален, он уникален. Через 200 лет после смерти Моцарт стал иконой. Миллионы проданных дисков, фанаты во всем мире, музыка, опередившая время. Новатор, артист-провокатор, он закончил жизнь в нищете в 35 лет. У него трагическая судьба, достойная рок-звезды. Чтобы понять, можно ли сравнить Моцарта с поп-звездами, нужно вернуться в тот момент, когда этот ребенок появился в колыбели, 27 января 1756 года, и над ним склонились не музы рока, а музы гения.
Доп. информация: "Кто есть кто"Сэмпл: http://www.sendspace.com/file/rqqt1y
качество: DVB-S
формат: MPEG-PS
Видео: MPEG Video 2, 720x576@768x576 (4:3), 25 fps, ~3929 kbps avg, 0.379 bit/pixel
Аудио: 48 kHz, MPEG Audio 2, 2 ch, ~192.00 kbps avg
Код: Выделить всё
Полное имя                               : H:\My Torrents\[apreder]Mozart_Superstar(2012)DVB.mpg
Формат                                   : MPEG-PS
Размер файла                             : 1,52 Гбайт
Продолжительность                        : 51 м.
Режим общего битрейта                    : Переменный
Общий поток                              : 4204 Кбит/сек
Видео
Идентификатор                            : 224 (0xE0)
Формат                                   : MPEG Video
Версия формата                           : Version 2
Профиль формата                          : Main@Main
Параметр BVOP формата                    : Да
Параметр матрицы формата                 : Выборочная
Параметр GOP формата                     : Variable
Продолжительность                        : 51 м.
Вид битрейта                             : Переменный
Битрейт                                  : 3929 Кбит/сек
Ширина                                   : 720 пикселей
Высота                                   : 576 пикселей
Соотношение сторон                       : 4:3
Частота кадров                           : 25,000 кадров/сек
Стандарт вещания                         : PAL
Цветовое пространство                    : YUV
Субдискретизация насыщенности            : 4:2:0
Битовая глубина                          : 8 бит
Тип развёртки                            : Чересстрочная
Порядок развёртки                        : Верхнее поле первое
Метод сжатия                             : С потерями
Бит/(Пиксели*Кадры)                      : 0.379
Временной код первого кадра              : 00:00:00:00
Оригинал временного кода                 : Group of pictures header
Размер потока                            : 1,42 Гбайт (93%)
Аудио
Идентификатор                            : 192 (0xC0)
Формат                                   : MPEG Audio
Версия формата                           : Version 1
Профиль формата                          : Layer 2
Продолжительность                        : 51 м.
Вид битрейта                             : Постоянный
Битрейт                                  : 192 Кбит/сек
Каналы                                   : 2 канала
Частота                                  : 48,0 КГц
Метод сжатия                             : С потерями
Размер потока                            : 71,2 Мбайт (5%)



1'197/1'178√[-4]

Постеры

Соцсети

 

Статистика

Автор: Солнышко
Добавлен: 26 апр 2018, 21:03
Размер: 1.52 ГБ
Размер: 1 633 867 901 байт
Сидеров: 0
Личеров: 0
Скачали: 0
Здоровье: 0%
Скорость скачивания: 0 байт/сек
Скорость раздачи: 0 байт/сек
Последний сидер: Нет
Последний личер: Нет
Приватный: Нет (DHT включён)
Скачать торрент
Скачать торрент
[ Размер 15.69 КБ / Просмотров 0 ]

Поделиться



  • Похожие торренты
    Ответы
    Просмотры
    Последнее сообщение

Вернуться в Музыка