Сообщение

Запрещённые песенки (Валерий Новиков) [1990, Документальный, DVDScrRip, AVC]

Сообщение Солнышко » 09 май 2018, 21:55

Запрещённые песенки
Жанр: Документальный
Страна: СССР
Студия: Западно-Сибирская студия кинохроники (Новосибирск)
Год выпуска: 1990
Продолжительность: 00:30:06
Режиссер: Валерий Новиков
Описание: В фильме рассказывается о фестивале бардов в Академгородке 1968 г. в Новосибирске, показаны кадры выступления известных в СССР авторов исполнителей песен: Юрия Кукина, Сергея Чеснокова, Александра Дольского и других. Наибольший интерес представляют кадры, запечатлевшие концертное исполнение песен опального в те годы Александра Галича. Посмотрев и послушав их, понимаешь насколько актуально они звучат и в нынешние дни, хотя написаны более 50-ти лет назад.
Дополнительная информация: Релиз:
Автор рипа: pmv
Большое спасибо за:
- исходный материал для оцифровки и разрешение на раздачу - некто Андрей
* 50 лет назад, 7 марта 1968 года в новосибирском Академгородке открылся грандиозный по тем временам Первый всесоюзный фестиваль авторской песни. Организовал и провел его местный молодежный клуб “Под интегралом” и его руководители: Григорий Яблонский, Анатолий Бурштейн, Герман Безносов, Светлана Рожнова, Н.Халатянц. В Академгородок тогда съехались барды со всей страны. Именно на нем состоялся единственный в СССР публичный концерт Александра Галича, уже бывшего в опале, который спел "Промолчи" и "Памяти Пастернака". Все кончилось идеологическим скандалом. Фестиваль осудили в советской печати, разобрали на партийных собраниях, а клуб "Под интегралом" заставили самораспуститься. Это стало концом “оттепели” в Сибири.
Александр Галич впоследствии вспоминал: «Зал Дома ученых в новосибирском Академгородке. Это был, как я теперь понимаю, мой первый и последний открытый концерт, на который даже продавались билеты. Я только что исполнил как раз ту самую песню «Памяти Пастернака» («Разобрали венки на веники…»), и вот после заключительных слов случилось невероятное. Зал, в котором в этот вечер находились две с лишним тысячи человек, встал и целое мгновение стоял молча, прежде чем раздались первые аплодисменты. Будь же благословенно это мгновение!»
* Более подробная информация об истории организации и проведения фестиваля бардовской песни представлена на сайтах http://lebed.com/2014/art6459.htm и https://www.sibreal.org/a/29095066.html
ВНИМАНИЕ!!! РИП ФОРМАТА mkv (кодек H.264) ВОСПРОИЗВОДИТСЯ НЕ НА ВСЕХ БЫТОВЫХ ВИДЕОПЛЕЕРАХ!!!
ПРОСЬБА к СКАЧАВШИМ. НЕ УХОДИТЕ С РАЗДАЧИ, ПОМОГИТЕ ДРУГИМ СКАЧАТЬ!!!
качество: DVDScrRip-AVC
формат: MKV
Видео: AVC (H264), 720x576 (1.25:1), 25 fps, 2000 kbps, 0.193 bit/pixel
Аудио: AC3, 48 kHz, stereo (2 ch), 192 kbps
General
Unique ID : 305700394174736203733631915574871643025 (0xE5FBC11ACD384E5F3C24E0AEEA76D391)
Complete name : D:\torrents\Запрещенные песенки (1990, Западно-Сибирская студия кинохроники).avi
Format : Matroska
Format version : Version 4 / Version 2
File size : 472 MiB
Duration : 30 min 5 s
Overall bit rate : 2 195 kb/s
Encoded date : UTC 2018-04-07 16:23:26
Writing application : mkvmerge v22.0.0 ('At The End Of The World') 64-bit
Writing library : libebml v1.3.5 + libmatroska v1.4.8
Video
ID : 1
Format : AVC
Format/Info : Advanced Video Codec
Format profile : High@L4.1
Format settings, CABAC : Yes
Format settings, ReFrames : 16 frames
Codec ID : V_MPEG4/ISO/AVC
Duration : 30 min 5 s
Bit rate : 2 000 kb/s
Width : 720 pixels
Height : 576 pixels
Display aspect ratio : 5:4
Frame rate mode : Constant
Frame rate : 25.000 FPS
Standard : PAL
Color space : YUV
Chroma subsampling : 4:2:0
Bit depth : 8 bits
Scan type : Progressive
Bits/(Pixel*Frame) : 0.193
Stream size : 431 MiB (91%)
Writing library : x264 core 146 r2538 121396c
Encoding settings : cabac=1 / ref=16 / deblock=1:0:0 / analyse=0x3:0x133 / me=umh / subme=10 / psy=1 / psy_rd=1.00:0.00 / mixed_ref=1 / me_range=24 / chroma_me=1 / trellis=2 / 8x8dct=1 / cqm=0 / deadzone=21,11 / fast_pskip=1 / chroma_qp_offset=-2 / threads=66 / lookahead_threads=4 / sliced_threads=0 / nr=0 / decimate=1 / interlaced=0 / bluray_compat=0 / constrained_intra=0 / bframes=8 / b_pyramid=2 / b_adapt=2 / b_bias=0 / direct=3 / weightb=1 / open_gop=0 / weightp=2 / keyint=250 / keyint_min=25 / scenecut=40 / intra_refresh=0 / rc_lookahead=60 / rc=2pass / mbtree=1 / bitrate=2000 / ratetol=1.0 / qcomp=0.60 / qpmin=0 / qpmax=69 / qpstep=4 / cplxblur=20.0 / qblur=0.5 / ip_ratio=1.40 / aq=1:1.00
Language : Russian
Default : Yes
Forced : No
Audio
ID : 2
Format : AC-3
Format/Info : Audio Coding 3
Mode extension : CM (complete main)
Format settings, Endianness : Big
Codec ID : A_AC3
Duration : 30 min 5 s
Bit rate mode : Constant
Bit rate : 192 kb/s
Channel(s) : 2 channels
Channel positions : Front: L R
Sampling rate : 48.0 kHz
Frame rate : 31.250 FPS (1536 spf)
Bit depth : 16 bits
Compression mode : Lossy
Stream size : 41.3 MiB (9%)
Language : Russian
Default : Yes
Forced : No
МОИ РАЗДАЧИ НА РУТРЕКЕРЕ:

Постеры

Соцсети

 

Статистика

Автор: Солнышко
Добавлен: 09 май 2018, 21:55
Размер: 472.43 МБ
Размер: 495 379 659 байт
Сидеров: 0
Личеров: 0
Скачали: 0
Здоровье: 0%
Скорость скачивания: 0 байт/сек
Скорость раздачи: 0 байт/сек
Последний сидер: Нет
Последний личер: Нет
Приватный: Нет (DHT включён)
Скачать торрент
Скачать торрент
[ Размер 18.99 КБ / Просмотров 0 ]

Поделиться



Вернуться в Музыка