Видеокурс для работы в Командной строке Command Line 2011 / Учебное пособие для работы с Командной строкой 2011 [2011, Командная строка, HDRip, RUS] (Видеоурок)

Видео уроки, книги, учебники, курсы IT по компьютерным технологиям
Торрент Сидеров Личеров Размер
torrent_3386403.torrent
15 4 2.51 ГБ
Аватара пользователя
Stepan
Администратор
Сообщения: 52267
Зарегистрирован: 05 ноя 2011, 20:36

Видеокурс для работы в Командной строке Command Line 2011 / Учебное пособие для работы с Командной строкой 2011 [2011, Командная строка, HDRip, RUS] (Видеоурок)

Сообщение Stepan » 11 фев 2019, 21:57

Видеокурс для работы в Командной строке Command Line 2011 / Учебное пособие для работы с Командной строкой 2011
Страна: Россия
Тематика: Командная строка
Тип раздаваемого материала: Видеоурок
Продолжительность: 02:38:00
Год выпуска: 2011
Язык: Русский
Перевод: Любителький (одноголосый)
Язык субтитров: нет
Описание: Данный видео курс научит Вас работать в командной строке с нуля. Также имеются материалы о самом простом программировании.
Например научит создавать командные файлы которые одним нажатием могут создать от 01-1000... папок практически мгновенно или дерево папок, также можно одним нажатием скопировать все файлы определенной папки с расширением ехе, jpj и тд. (которое необходимо), в отдельную другую папку.
Презент!!! В данном видеокурсе также имеется, создание учетных записей пользователей, работа с сетью, редактирование, администрирование и тд.
Доп. информация: Скорость для начала 500 кб\с.
Качество : HDRip
Формат: AVI
Видео кодек: DivX
Аудио кодек: AAC
D:\Ó÷åáà\Âèäåîóðîêè\ÂÈÄÅÎÓÐÎÊÈ\commandLine001.avi
General
Complete name : D:\Ó÷åáà\Âèäåîóðîêè\ÂÈÄÅÎÓÐÎÊÈ\commandLine001.avi
Format : AVI
Format/Info : Audio Video Interleave
File size : 348 MiB
Duration : 19mn 56s
Overall bit rate : 2 438 Kbps
Writing application : Lavf52.84.0
Video
Format : MPEG-4 Visual
Format profile : Simple@L1
Format settings, BVOP : No
Format settings, QPel : No
Format settings, GMC : No warppoints
Format settings, Matrix : Default
Codec ID : FMP4
Duration : 19mn 56s
Bit rate : 991 Kbps
Width : 754 pixels
Height : 590 pixels
Display aspect ratio : 1.278
Frame rate : 10.000 fps
Resolution : 24 bits
Colorimetry : 4:2:0
Scan type : Progressive
Bits/(Pixel*Frame) : 0.223
Stream size : 141 MiB (41%)
Writing library : Lavc52.96.0
Audio
Format : PCM
Format settings, Endianness : Little
Format settings, Sign : Unsigned
Codec ID : 1
Codec ID/Hint : Microsoft
Duration : 19mn 56s
Bit rate mode : Constant
Bit rate : 1 411.2 Kbps
Channel(s) : 2 channels
Sampling rate : 44.1 KHz
Resolution : 16 bits
Stream size : 201 MiB (58%)
Interleave, duration : 6 ms (0.06 video frame)
Системные требования: Главное чтобы кодеки были. ВНИМАНИЕ ТОРРЕНТ ПЕРЕЗАЛИТ БЕЗ СОФТА!!! 23.01.11г. 22:56






У вас нет необходимых прав для просмотра вложений в этом сообщении.