[Lynda] Roger S.H. Schulman - Screenwriting with Final Draft [2015,MP4, ENG]

Видео уроки, книги, учебники, курсы IT по компьютерным технологиям
Торрент Сидеров Личеров Размер
torrent_5317085.torrent
12 2 320.72 МБ
Аватара пользователя
Stepan
Администратор
Сообщения: 52267
Зарегистрирован: 05 ноя 2011, 20:36

[Lynda] Roger S.H. Schulman - Screenwriting with Final Draft [2015,MP4, ENG]

Сообщение Stepan » 11 фев 2019, 21:59

Screenwriting with Final Draft
| Roger S.H. Schulman |Eng (Английский )|Видеоурок| 01:38:56 |Lynda| 2015 | MP4| + Exercise Files |
Video :1280x720 (16:9), 30.000fps, 2 541 Kbps
Audio : 160 Kbps, 48.0 KHz , 2 channels ACC
#7
***
Final Draft- популярная программа для написания всех типов сценарный.
Номинированный на Оскар Roger S.H. Schulman научит вас все, как использовать стандартные инструментов программы и стандартная бумажная форма кино / телевизионного сценария, и почему он так выглядит.
Далее вы узнаете об использовании шаблонов и работа Final Draft- а на IPad/iPhone- e
***
Writing scripts for the screen, big or small, is a dream of countless aspiring creatives. As communication has become more visual and video technology has become more accessible, the art and craft of screenwriting has found powerful uses in everything from politics to marketing and education. Final Draft 9 is the software of choice—the leader in the development of screenplays of all types. It's the go-to software for novices who want to use a professional tool, and veterans who have made it the standard.
Screenwriting with Final Draft is a step-by-step, interactive journey that takes the aspiring screenwriter—or the pro who hasn't yet used Final Draft—from zero to sixty. While it doesn't cover every feature, this Final Draft training course offers an overview of 80% of the tools a writer needs to go from outline to, well, final draft. Your guide, Oscar-nominated screenwriter Roger S.H. Schulman, also offers insider tips and tricks to save time and improve the quality of scripts, and a bonus chapter on using Final Draft Writer on the iPad or iPhone—to take scripts wherever inspiration strikes.
Topics include:
The history of screenwriting
Customizing the Final Draft toolbar
Choosing a Final Draft template
Finding and replacing words
Creating macros to speed up formatting
Working with the Format Assistant
Making revisions
Comparing two drafts
Importing and exporting scripts from Final Draft
Working with Final Draft Writer for iOS
001 Welcome
002 Using the exercise files
003 What we will and won`t be learning
004 A brief history of screenwriting
005 Basic script elements
006 Making formatting a tool, not an obstacle
007 Final Draft user interface
008 Making the toolbar your own
009 Choosing a template
010 Two ways to write
011 Best practices
012 Say hello to your little friends
013 Go to and find and replace
014 Other keyboard shortcuts
015 MOREs, CONTINUEDs, and other frills
016 Creating your own macros
017 Format assistant
018 Scene Navigator
019 ScriptNotes Navigator
020 Character Navigator
021 Manual revisions and revision mode
022 Comparing two drafts
023 What Final Draft can import
024 Reformatting
025 What Final Draft can export
026 Splitting the window
027 Cheating
028 Creating a spike file
029 The touchscreen interface
030 Importing your scripts into FDW
031 Normal and page - Two very different views
032 Throwing a wrench into the works
033 There`s even more
034 Goodbye and good luck
General
Format : MPEG-4
Format profile : Base Media / Version 2
Codec ID : mp42 (mp42/isom)
File size : 21.3 MiB
Duration : 1mn 6s
Overall bit rate mode : Constant
Overall bit rate : 2 708 Kbps
Encoded date : UTC 2015-11-12 08:51:39
Tagged date : UTC 2015-11-12 08:51:39
IsTruncated : Yes
Video
ID : 1
Format : AVC
Format/Info : Advanced Video Codec
Format profile : Main@L4
Format settings, CABAC : Yes
Format settings, ReFrames : 5 frames
Codec ID : avc1
Codec ID/Info : Advanced Video Coding
Duration : 1mn 6s
Bit rate mode : Constant
Bit rate : 2 541 Kbps
Nominal bit rate : 2 400 Kbps / 2 400 Kbps
Maximum bit rate : 9 250 Kbps
Width : 1 280 pixels
Height : 720 pixels
Display aspect ratio : 16:9
Frame rate mode : Constant
Frame rate : 30.000 fps
Color space : YUV
Chroma subsampling : 4:2:0
Bit depth : 8 bits
Scan type : Progressive
Bits/(Pixel*Frame) : 0.092
Stream size : 20.0 MiB (94%)
Title : Telestream Inc. Dib Library - ReleaseVantage 2014.59.138974
Writing library : x264 core 129
Encoding settings : cabac=1 / ref=5 / deblock=1:0:0 / analyse=0x1:0x111 / me=hex / subme=7 / psy=1 / psy_rd=1.00:0.00 / mixed_ref=1 / me_range=16 / chroma_me=1 / trellis=1 / 8x8dct=0 / cqm=0 / deadzone=21,11 / fast_pskip=1 / chroma_qp_offset=-2 / threads=10 / lookahead_threads=1 / sliced_threads=0 / nr=0 / decimate=1 / interlaced=0 / bluray_compat=0 / constrained_intra=0 / bframes=1 / b_pyramid=0 / b_adapt=1 / b_bias=0 / direct=1 / weightb=1 / open_gop=0 / weightp=2 / keyint=300 / keyint_min=30 / scenecut=40 / intra_refresh=0 / rc_lookahead=40 / rc=cbr / mbtree=1 / bitrate=2400 / ratetol=1.0 / qcomp=0.60 / qpmin=0 / qpmax=69 / qpstep=4 / vbv_maxrate=2400 / vbv_bufsize=24000 / nal_hrd=cbr / ip_ratio=3.00 / aq=1:1.00
Language : English
Encoded date : UTC 2015-11-12 08:51:39
Tagged date : UTC 2015-11-12 08:51:39
Audio
ID : 2
Format : AAC
Format/Info : Advanced Audio Codec
Format profile : LC
Codec ID : 40
Duration : 1mn 6s
Bit rate mode : Constant
Bit rate : 160 Kbps
Nominal bit rate : 128 Kbps
Channel(s) : 2 channels
Channel positions : Front: L R
Sampling rate : 48.0 KHz
Frame rate : 46.875 fps (1024 spf)
Compression mode : Lossy
Stream size : 1.26 MiB (6%)
Title : Telestream Inc. Dib Library - ReleaseVantage 2014.59.138974
Language : English
Encoded date : UTC 2015-11-12 08:51:39
Tagged date : UTC 2015-11-12 08:51:39
У вас нет необходимых прав для просмотра вложений в этом сообщении.