[Coursera \ ВШЭ] Документы и презентации в LaTeX [2014, RUS]

Видео уроки, книги, учебники, курсы IT по компьютерным технологиям
Торрент Сидеров Личеров Размер
torrent_4760637.torrent
16 4 1.09 ГБ
Аватара пользователя
Stepan
Администратор
Сообщения: 52386
Зарегистрирован: 05 ноя 2011, 20:36

[Coursera \ ВШЭ] Документы и презентации в LaTeX [2014, RUS]

Сообщение Stepan » 11 фев 2019, 22:00

Документы и презентации в LaTeX
Год выпуска: 2014
Производитель: Coursera / ВШЭ
Сайт производителя: https://www.coursera.org/course/latex
Автор: Д. Фёдоровых
Продолжительность: ~10:00:00
Тип раздаваемого материала: Видеоурок
Язык: Русский
Описание: LaTeX (читается «латех») — научная издательская система. На этом курсе вы узнаете, как оформить ваши идеи в виде красивого, профессионально сверстанного текста или слайдов презентации.
Система LaTeX — стандарт в научном мире. Лучшие математические, физические и экономические журналы издаются в LaTeX и рекомендуют авторам использовать его для подготовки рукописей. LaTeX не очень прост в освоении, но обладает массой преимуществ перед популярными текстовыми процессорами и редакторами презентаций:
—высококачественная верстка — текст выглядит «как в книжке»;
—удобная работа со сложными математическими формулами;
—отличная кросс-платформенная совместимость;
—автоматизация многих рутинных процессов: нумерации формул, рисунков, таблиц, разделов документа, перекрестных ссылок, создания колонтитулов, оформления стилей заголовков и т. п.;
—огромное сообщество пользователей и разработчиков, пакеты-расширения на все случаи жизни.
LaTeX облегчает жизнь всем, кому приходится оформлять эссе, рефераты, курсовые и дипломные работы, диссертации, а также слайды презентаций на их основе. Пользователи, освоившие LaTeX, вспоминают верстку сложных документов в Word и создание больших презентаций в PowerPoint как страшный сон.
Если вы сомневаетесь, стоит ли вам изучать LaTeX, почитайте более подробно о его преимуществах (по-английски):
http://www.ctan.org/tex/
http://www.andy-roberts.net/writing/latex/benefits
http://ricardo.ecn.wfu.edu/~cottrell/wp.html
http://www.tug.org/TUGboat/tb22-1-2/tb70heff.pdf
У курса есть официальная группа в социальной сети «ВКонтакте»: https://vk.com/hse.latex.
I. Введение. Математика в LaTeX (Неделя 1)
II. Вставка рисунков и таблиц (Неделя 2)
III. Счетчики и макрокоманды. Оформление документа в целом (Неделя 3)
IV. Работа с библиографией. Графика в TikZ/PGF (Неделя 4)
V. Презентации в beamer. Русский язык в LaTeX. (Неделя 5)
Файлы примеров: присутствуют
Формат видео: MP4
Видео: MPEG4 Video (H264) 960x540 29.97fps 180kbps
Аудио: AAC 44100Hz stereo 128kbps
General
Complete name : \\psf\Home\Documents\Яндекс.Диск\Учёба\TeX\Документы и презентации в LaTeX\1 - 1 - 1.1. Что такое LaTeX (8-43).mp4
Format : MPEG-4
Format profile : Base Media
Codec ID : isom
File size : 19.8 MiB
Duration : 8mn 43s
Overall bit rate : 318 Kbps
Writing application : Lavf55.10.100
Video
ID : 1
Format : AVC
Format/Info : Advanced Video Codec
Format profile : Main@L3.1
Format settings, CABAC : Yes
Format settings, ReFrames : 4 frames
Codec ID : avc1
Codec ID/Info : Advanced Video Coding
Duration : 8mn 43s
Bit rate : 181 Kbps
Width : 960 pixels
Height : 540 pixels
Display aspect ratio : 16:9
Frame rate mode : Constant
Frame rate : 29.970 fps
Color space : YUV
Chroma subsampling : 4:2:0
Bit depth : 8 bits
Scan type : Progressive
Bits/(Pixel*Frame) : 0.012
Stream size : 11.3 MiB (57%)
Writing library : x264 core 129 r2230 1cffe9f
Encoding settings : cabac=1 / ref=3 / deblock=1:0:0 / analyse=0x1:0x111 / me=hex / subme=7 / psy=1 / psy_rd=1.00:0.00 / mixed_ref=1 / me_range=16 / chroma_me=1 / trellis=1 / 8x8dct=0 / cqm=0 / deadzone=21,11 / fast_pskip=1 / chroma_qp_offset=-2 / threads=12 / lookahead_threads=2 / sliced_threads=0 / nr=0 / decimate=1 / interlaced=0 / bluray_compat=0 / constrained_intra=0 / bframes=3 / b_pyramid=2 / b_adapt=1 / b_bias=0 / direct=1 / weightb=1 / open_gop=0 / weightp=2 / keyint=250 / keyint_min=25 / scenecut=40 / intra_refresh=0 / rc_lookahead=40 / rc=crf / mbtree=1 / crf=28.0 / qcomp=0.60 / qpmin=0 / qpmax=69 / qpstep=4 / ip_ratio=1.40 / aq=1:1.00
Language : English
Audio
ID : 2
Format : AAC
Format/Info : Advanced Audio Codec
Format profile : LC
Codec ID : 40
Duration : 8mn 43s
Bit rate mode : Constant
Bit rate : 128 Kbps
Channel(s) : 2 channels
Channel positions : Front: L R
Sampling rate : 44.1 KHz
Compression mode : Lossy
Stream size : 8.01 MiB (40%)
Language : English
Также внутри раздачи:
— слайды из лекций
— субтитры на русском
— шаблоны проектов
— список вспомогательной литературы
— набор сайтов, которые помогут в освоении LaTeX
У вас нет необходимых прав для просмотра вложений в этом сообщении.