Видео


Сообщение

Видео AtkinsRotary.com - Overhauling Mazda's 13B Rotary Engine. Instructional Video / Ремонт роторных двигателей Mazda 13B. Обучающее видео [DVDRip]

Сообщение Nik » 16 июн 2012, 09:43

AtkinsRotary.com - Overhauling Mazda's 13B Rotary Engine. Instructional Video / Ремонт роторных двигателей Mazda 13B. Обучающее видео
http://fastpic.ru/view/19/2011/0417/02146ed56e2eb97437f985e6839c6e19.jpg.html
Страна: США
Продолжительность: 1 час
Язык: Английский
Русские субтитры: нет
Описание: Показаны процессы разборки, дефектовки и сборки роторного двигателя Mazda 13B.
Автор: AtkinsRotary.com
Качество видео: DVDRip
Формат видео: AVI
Видео: Xvid 720x480 29.97fps
Аудио: MPEG Audio Layer 3 44100Hz stereo 160Kbps
Скриншоты
Отчет MediaInfo
General
Complete name : G:\Video\(other)\Автомобили\AtkinsRotary.com Instructional Rebuild Video\AtkinsRotary.com Instructional Rebuild Video.avi
Format : AVI
Format/Info : Audio Video Interleave
File size : 940 MiB
Duration : 1h 0mn
Overall bit rate : 2 168 Kbps
Writing library : VirtualDub build 32842/release
Video
ID : 0
Format : MPEG-4 Visual
Format profile : Simple@L3
Format settings, BVOP : No
Format settings, QPel : No
Format settings, GMC : No warppoints
Format settings, Matrix : Default (H.263)
Codec ID : XVID
Codec ID/Hint : XviD
Duration : 1h 0mn
Bit rate : 1 996 Kbps
Width : 720 pixels
Height : 480 pixels
Display aspect ratio : 3:2
Frame rate : 29.970 fps
Standard : NTSC
Color space : YUV
Chroma subsampling : 4:2:0
Bit depth : 8 bits
Scan type : Progressive
Compression mode : Lossy
Bits/(Pixel*Frame) : 0.193
Stream size : 865 MiB (92%)
Writing library : XviD 1.2.1 (UTC 2008-12-04)
Audio
ID : 1
Format : MPEG Audio
Format version : Version 1
Format profile : Layer 3
Mode : Joint stereo
Mode extension : MS Stereo
Codec ID : 55
Codec ID/Hint : MP3
Duration : 1h 0mn
Bit rate mode : Constant
Bit rate : 160 Kbps
Channel(s) : 2 channels
Sampling rate : 44.1 KHz
Compression mode : Lossy
Stream size : 69.4 MiB (7%)
Alignment : Split accross interleaves
Interleave, duration : 33 ms (1.00 video frame)
Interleave, preload duration : 500 ms
Writing library : LAME3.98.2

Постеры

Соцсети

 

Статистика

Автор: Nik
Добавлен: 16 июн 2012, 09:43
Размер: 939.94 МБ
Размер: 985 595 222 байт
Сидеров: 5
Личеров: 3
Скачали: 1
Здоровье: 100%
Раздающих: 100%
Скорость скачивания: 0 байт/сек
Скорость раздачи: 0 байт/сек
Последний сидер: 7 месяцев 24 дня 23 часа 27 минут 17 секунд назад
Последний личер: 7 месяцев 24 дня 23 часа 27 минут 17 секунд назад
Приватный: Нет (DHT включён)
Скачать торрент
Скачать торрент
[ Размер 18.91 КБ / Просмотров 4 ]

Поделиться



Вернуться в Ремонт и эксплуатация