Видео


Сообщение

Видео Рассмотрение уголовного дела судом присяжных [DVDRip]

Сообщение Nik » 19 июн 2012, 23:45

Рассмотрение уголовного дела судом присяжных
Продолжительность: 2 часа 40 минутОписание: Учебный фильм. Хотя довольно и старый, но думаю, будет полезен начинающим юристам получить наглядное представление о том, как происходит рассмотрение уголовного дела с участием присяжных заседателей.Качество: DVDRip
Формат: MP4
Видео кодек: H.264
Аудио кодек: AAC
Видео: 720x576 (4:3) 562 Kbps
Аудио: 44000Hz stereo 128kbps
Язык: Русский
MediaInfo
General
Complete name : E:\films\Рассмотрение уголовного дела судом присяжных\VTS_01_1.mp4
Format : MPEG-4
Format profile : Base Media
Codec ID : isom
File size : 180 MiB
Duration : 36mn 19s
Overall bit rate : 694 Kbps
Writing application : Lavf52.32.0
Video
ID : 1
Format : AVC
Format/Info : Advanced Video Codec
Format profile : Baseline@L1.3
Format settings, CABAC : No
Format settings, ReFrames : 1 frame
Codec ID : avc1
Codec ID/Info : Advanced Video Coding
Duration : 36mn 19s
Bit rate mode : Variable
Bit rate : 562 Kbps
Width : 720 pixels
Height : 576 pixels
Display aspect ratio : 4:3
Frame rate mode : Constant
Frame rate : 23.976 fps
Standard : PAL
Resolution : 8 bits
Colorimetry : 4:2:0
Scan type : Progressive
Bits/(Pixel*Frame) : 0.056
Stream size : 146 MiB (81%)
Audio
ID : 2
Format : AAC
Format/Info : Advanced Audio Codec
Format version : Version 4
Format profile : LC
Format settings, SBR : No
Codec ID : 40
Duration : 36mn 19s
Bit rate mode : Variable
Bit rate : 128 Kbps
Channel(s) : 2 channels
Channel positions : Front: L R
Sampling rate : 44.1 KHz
Stream size : 33.3 MiB (18%)
Скриншоты

Постеры

Соцсети

 

Статистика

Автор: Nik
Добавлен: 19 июн 2012, 23:45
Размер: 695.37 МБ
Размер: 729 153 437 байт
Сидеров: 34
Личеров: 1
Скачали: 0
Здоровье: 100%
Раздающих: 100%
Скорость скачивания: 0 байт/сек
Скорость раздачи: 0 байт/сек
Последний сидер: 11 месяцев 1 день 5 часов 32 минуты 35 секунд назад
Последний личер: 11 месяцев 1 день 5 часов 32 минуты 35 секунд назад
Приватный: Нет (DHT включён)
Школьникам, студентам и педагогам Скачать торрент
Скачать торрент
[ Размер 14.38 КБ / Просмотров 1 ]

Поделиться



  • Похожие торренты
    Ответы
    Просмотры
    Последнее сообщение

Вернуться в Школьникам, студентам и педагогам