Рассмотрение уголовного дела судом присяжных [DVDRip]

Образование, подготовка, тестирование и т.д.
Торрент Сидеров Личеров Размер
torrent_29687.torrent
1 1 695.37 МБ
Аватара пользователя
Nik
Сообщения: 25933
Зарегистрирован: 05 ноя 2011, 22:02

Рассмотрение уголовного дела судом присяжных [DVDRip]

Сообщение Nik » 19 июн 2012, 23:45

Рассмотрение уголовного дела судом присяжных
Продолжительность: 2 часа 40 минутОписание: Учебный фильм. Хотя довольно и старый, но думаю, будет полезен начинающим юристам получить наглядное представление о том, как происходит рассмотрение уголовного дела с участием присяжных заседателей.Качество: DVDRip
Формат: MP4
Видео кодек: H.264
Аудио кодек: AAC
Видео: 720x576 (4:3) 562 Kbps
Аудио: 44000Hz stereo 128kbps
Язык: Русский
MediaInfo
General
Complete name : E:\films\Рассмотрение уголовного дела судом присяжных\VTS_01_1.mp4
Format : MPEG-4
Format profile : Base Media
Codec ID : isom
File size : 180 MiB
Duration : 36mn 19s
Overall bit rate : 694 Kbps
Writing application : Lavf52.32.0
Video
ID : 1
Format : AVC
Format/Info : Advanced Video Codec
Format profile : Baseline@L1.3
Format settings, CABAC : No
Format settings, ReFrames : 1 frame
Codec ID : avc1
Codec ID/Info : Advanced Video Coding
Duration : 36mn 19s
Bit rate mode : Variable
Bit rate : 562 Kbps
Width : 720 pixels
Height : 576 pixels
Display aspect ratio : 4:3
Frame rate mode : Constant
Frame rate : 23.976 fps
Standard : PAL
Resolution : 8 bits
Colorimetry : 4:2:0
Scan type : Progressive
Bits/(Pixel*Frame) : 0.056
Stream size : 146 MiB (81%)
Audio
ID : 2
Format : AAC
Format/Info : Advanced Audio Codec
Format version : Version 4
Format profile : LC
Format settings, SBR : No
Codec ID : 40
Duration : 36mn 19s
Bit rate mode : Variable
Bit rate : 128 Kbps
Channel(s) : 2 channels
Channel positions : Front: L R
Sampling rate : 44.1 KHz
Stream size : 33.3 MiB (18%)
Скриншоты
У вас нет необходимых прав для просмотра вложений в этом сообщении.