Пакет видеофрагментов к урокам физики в средней школе [2007 г., учебные видеофрагменты (74 шт)]

Образование, подготовка, тестирование и т.д.

<t>Оценка торрента</t>

5
0
Голосов нет
4
0
Голосов нет
3
0
Голосов нет
2
0
Голосов нет
1
0
Голосов нет
 
Всего голосов: 0

Торрент Сидеров Личеров Размер
torrent_29901.torrent
0 0 461.94 МБ
Аватара пользователя
asder
Сообщения: 5970
Зарегистрирован: 05 ноя 2011, 23:24

Пакет видеофрагментов к урокам физики в средней школе [2007 г., учебные видеофрагменты (74 шт)]

Сообщение asder » 20 июн 2012, 00:18

Пакет видеофрагментов к урокам физики в средней школе
Год выпуска: 2007
Страна: Россия - Франция
Жанр: учебные видеофрагменты (74 шт)
Язык: русский
Описание: Пакет видеофрагментов к урокам физики в средней школе (видеофрагменты не те, что в "Фильмах по физике").
Подборка видеоматериалов в помощь учителю физики средней школы предназначена для использования на уроках физики по разделам:
- Опыты по механике
- Опыты с низкими температурами
- Опыты на вращающейся плоскости
- Опыты с магнитным полем
- Опыты по электростатике
- Опыты по давлению
- Опыты по выталкивающей силе
Пакет содержит :
файл index.ppt - загрузчик видеофрагментов,
74 файла в формате AVI и WMV - видеофрагменты физических опытов (Pierron-image),
файл mplayer2.exe - программа для просмотра видеофайлов,
файл Аннотация.doc - текстовый файл.
Загрузчик файлов index.ppt обеспечивает быстрый доступ к нужному фрагменту из меню,
в котором видеофрагменты сгруппированы тематически.
Требования к аппаратуре и программному обеспечению:
для успешного использования пакета видеофрагментов рекомендуется ПК с процессором
не ниже PENTIUM-IV или его аналогов с операционной системой WINDOWS-98 (-XP,-NT),
конструктор презентаций PowerPoint (любой версии) и универсальный проигрыватель видеофайлов ( любой версии, но рекомендуется mplayer2.exe ).
Форматы: AVI и WMV
Качество: Удовлетворительное.
Тех. данные&#58;
Про avi:
Format : AVI
Format/Info : Audio Video Interleave
Format settings : rec
File size : 5.59 MiB
Duration : 41s 280ms
Overall bit rate : 1 136 Kbps
Video
Format : MPEG-4 Visual
Format settings, BVOP : Yes
Format settings, QPel : No
Format settings, GMC : No warppoints
Format settings, Matrix : Default
Muxing mode : Packed bitstream
Codec ID : DX50
Codec ID/Hint : DivX 5
Duration : 41s 280ms
Bit rate : 777 Kbps
Width : 512 pixels
Height : 384 pixels
Display aspect ratio : 4/3
Frame rate : 25.000 fps
Resolution : 24 bits
Colorimetry : 4:2:0
Scan type : Progressive
Bits/(Pixel*Frame) : 0.158
Stream size : 3.83 MiB (68%)
Writing library : DivX 6.1.1 (UTC 2006-02-01)
Audio
Format : PCM
Format settings, Endianness : Little
Format settings, Sign : Unsigned
Codec ID : 1
Codec ID/Hint : Microsoft
Duration : 41s 280ms
Bit rate mode : Constant
Bit rate : 352.8 Kbps
Channel(s) : 1 channel
Sampling rate : 22.05 KHz
Resolution : 16 bits
Stream size : 1.74 MiB (31%)
Interleave, duration : 809 ms (20.24 video frames)
Interleave, preload duration : 500 ms
Про wmv:
General
Format : Windows Media
File size : 4.05 MiB
Duration : 58s 200ms
Overall bit rate mode : Constant
Overall bit rate : 584 Kbps
Maximum Overall bit rate : 585 Kbps
Encoded date : UTC 2007-02-12 21:22:53.531
Application : Windows Movie Maker 2.1.4026.0
Video #2
Format : VC-1
Format profile : MP@ML
Codec ID : WMV3
Codec ID/Info : Windows Media Video 9
Codec ID/Hint : WMV3
Duration : 58s 200ms
Bit rate mode : Constant
Bit rate : 512 Kbps
Width : 640 pixels
Height : 480 pixels
Display aspect ratio : 4/3
Frame rate : 25.000 fps
Resolution : 24 bits
Scan type : Progressive
Bits/(Pixel*Frame) : 0.067
Language : Russian
Audio #1
Format : WMA2
Format profile : L1
Codec ID : 161
Codec ID/Info : Windows Media Audio 2
Description of the codec : Windows Media Audio 9.1 - 64 kbps, 44 kHz, stereo (A/V) 1-pass CBR
Duration : 58s 200ms
Bit rate mode : Constant
Bit rate : 64.0 Kbps
Channel(s) : 2 channels
Sampling rate : 44.1 KHz
Resolution : 16 bits
Language : Russian
Скриншоты
У вас нет необходимых прав для просмотра вложений в этом сообщении.